  0
SECTION
  2
HEADER
  9
$ACADVER
  1
AC1004
  9
$ANGBASE
 50
0.000000
  9
$ANGDIR
 70
     0
  9
$ATTDIA
 70
     0
  9
$ATTMODE
 70
     1
  9
$ATTREQ
 70
     1
  9
$AUNITS
 70
     0
  9
$AUPREC
 70
     0
  9
$AXISMODE
 70
     0
  9
$AXISUNIT
 10
0.000000
 20
0.000000
  9
$BLIPMODE
 70
     1
  9
$CECOLOR
 62
   256
  9
$CELTYPE
  6
BYLAYER
  9
$CHAMFERA
 40
0.000000
  9
$CHAMFERB
 40
0.000000
  9
$CLAYER
  8
0
  9
$COORDS
 70
     0
  9
$DIMALT
 70
     0
  9
$DIMALTD
 70
     2
  9
$DIMALTF
 40
25.400000
  9
$DIMAPOST
  1

  9
$DIMASO
 70
     1
  9
$DIMASZ
 40
0.153877
  9
$DIMBLK
  1

  9
$DIMBLK1
  1

  9
$DIMBLK2
  1

  9
$DIMCEN
 40
9.000000E-02
  9
$DIMDLE
 40
0.000000
  9
$DIMDLI
 40
0.380000
  9
$DIMEXE
 40
0.150000
  9
$DIMEXO
 40
0.100000
  9
$DIMLFAC
 40
1.000000
  9
$DIMLIM
 70
     0
  9
$DIMPOST
  1

  9
$DIMRND
 40
0.000000
  9
$DIMSCALE
 40
1.000000
  9
$DIMSE1
 70
     0
  9
$DIMSE2
 70
     0
  9
$DIMSHO
 70
     0
  9
$DIMTAD
 70
     0
  9
$DIMTIH
 70
     0
  9
$DIMTM
 40
0.000000
  9
$DIMTOH
 70
     1
  9
$DIMTOL
 70
     0
  9
$DIMTP
 40
0.000000
  9
$DIMTSZ
 40
0.000000
  9
$DIMTXT
 40
0.156000
  9
$DIMZIN
 70
     0
  9
$DRAGMODE
 70
     1
  9
$DWGCODEPAGE
  3
ansi_1252
  9
$ELEVATION
 40
0.000000
  9
$EXTMAX
 10
18.040953
 20
0.125000
 30
0.000000
  9
$EXTMIN
 10
-3.674374
 20
-11.641464
 30
0.000000
  9
$FASTZOOM
 70
     1
  9
$FILLETRAD
 40
6.250000E-02
  9
$FILLMODE
 70
     1
  9
$GRIDMODE
 70
     0
  9
$GRIDUNIT
 10
0.000000
 20
0.000000
  9
$INSBASE
 10
0.000000
 20
0.000000
 30
0.000000
  9
$LIMCHECK
 70
     0
  9
$LIMMAX
 10
18.040953
 20
0.125000
  9
$LIMMIN
 10
-3.674374
 20
-11.641464
  9
$LTSCALE
 40
1.000000
  9
$LUNITS
 70
     2
  9
$LUPREC
 70
     3
  9
$MEASUREMENT
 70
     0
  9
$MENU
  1
ACAD
  9
$MIRRTEXT
 70
     0
  9
$ORTHOMODE
 70
     0
  9
$OSMODE
 70
     0
  9
$PDMODE
 70
     0
  9
$PDSIZE
 40
0.000000
  9
$PLINEWID
 40
0.000000
  9
$PROXYGRAPHICS
 70
     0
  9
$QTEXTMODE
 70
     0
  9
$REGENMODE
 70
     1
  9
$SKETCHINC
 40
0.100000
  9
$SKPOLY
 70
     0
  9
$SNAPANG
 50
0.000000
  9
$SNAPBASE
 10
0.000000
 20
0.000000
  9
$SNAPISOPAIR
 70
     0
  9
$SNAPMODE
 70
     0
  9
$SNAPSTYLE
 70
     0
  9
$SNAPUNIT
 10
1.000000
 20
1.000000
  9
$SPLFRAME
 70
     0
  9
$SPLINESEGS
 70
     8
  9
$TDCREATE
 40
2452509.378461
  9
$TDINDWG
 40
0.000000
  9
$TDUPDATE
 40
2452509.378461
  9
$TDUSRTIMER
 40
0.000000
  9
$TEXTSIZE
 40
0.156000
  9
$TEXTSTYLE
  7
STANDARD
  9
$THICKNESS
 40
0.000000
  9
$TRACEWID
 40
5.000000E-02
  9
$USERI1
 70
     0
  9
$USERI2
 70
     0
  9
$USERI3
 70
     0
  9
$USERI4
 70
     0
  9
$USERI5
 70
     0
  9
$USERR1
 40
0.000000
  9
$USERR2
 40
0.000000
  9
$USERR3
 40
0.000000
  9
$USERR4
 40
0.000000
  9
$USERR5
 40
0.000000
  9
$USRTIMER
 70
     1
  9
$VIEWCTR
 10
7.183289
 20
-5.758232
  9
$VIEWDIR
 10
0.000000
 20
0.000000
 30
1.000000
  9
$VIEWSIZE
 40
11.766464
  0
ENDSEC
  0
SECTION
  2
TABLES
  0
TABLE
  2
LTYPE
 70
     3
  0
LTYPE
  2
SOLID
  3
Solid
 70
    64
 72
    65
 73
     0
 40
0.000000
  0
LTYPE
  2
CONSTRUCTION
  3
Construction
 70
    64
 72
    65
 73
     2
 40
4.000000E-02
 49
1.000000E-02
 49
-3.000000E-02
  0
LTYPE
  2
GAP
  3
Gap
 70
    64
 72
    65
 73
     3
 40
100.060000
 49
0.000000
 49
-6.000000E-02
 49
100.000000
  0
ENDTAB
  0
TABLE
  2
LAYER
 70
     2
  0
LAYER
  2
Layer0$C$L0
 70
     0
  6
SOLID
 62
     2
  0
LAYER
  2
Layer55$C$L55
 70
     0
  6
SOLID
 62
   111
  0
ENDTAB
  0
TABLE
  2
STYLE
 70
     1
  0
STYLE
  2
STANDARD
  3
txt
  4

 40
0.000000
 41
1.000000
 42
0.125000
 50
0.000000
 70
     0
 71
     0
  0
ENDTAB
  0
TABLE
  2
DIMSTYLE
 70
     2
  0
DIMSTYLE
  2
DIM0
 70
     0
  3

  4

  5

  6

  7

 40
1.000000
 41
0.153877
 42
0.100000
 43
0.380000
 44
0.150000
 45
0.000000
 46
0.000000
 47
0.000000
 48
0.000000
140
0.125000
141
9.000000E-02
142
0.000000
143
1.000000
144
1.000000
145
0.000000
146
1.000000
147
6.250000E-02
 71
     0
 72
     0
 73
     1
 74
     1
 75
     0
 76
     0
 77
     0
 78
     0
170
     0
171
     0
172
     0
173
     0
174
     0
175
     0
176
     0
177
     0
178
     0
270
     2
271
     2
272
     2
273
     2
274
     0
275
     1
280
     0
281
     0
282
     0
283
     1
284
     0
285
     0
286
     0
287
     3
288
     0
  0
DIMSTYLE
  2
DIM1
 70
     1
  3

  4

  5

  6

  7

 40
1.000000
 41
0.153877
 42
0.100000
 43
0.380000
 44
0.150000
 45
0.000000
 46
0.000000
 47
0.000000
 48
0.000000
140
0.125000
141
9.000000E-02
142
0.000000
143
1.000000
144
1.000000
145
0.000000
146
1.000000
147
6.250000E-02
 71
     0
 72
     0
 73
     1
 74
     1
 75
     0
 76
     0
 77
     0
 78
     0
170
     0
171
     0
172
     0
173
     0
174
     0
175
     0
176
     0
177
     0
178
     0
270
     2
271
     3
272
     3
273
     2
274
     0
275
     1
280
     0
281
     0
282
     0
283
     1
284
     0
285
     0
286
     0
287
     3
288
     0
  0
ENDTAB
  0
ENDSEC
  0
SECTION
  2
BLOCKS
  0
BLOCK
  8
Layer0$C$L0
  2
*D0
 70
     1
 10
0.000000
 20
0.000000
  0
SOLID
  8
Layer0$C$L0
 62
     0
 10
2.278648
 20
-2.030416
 11
2.239954
 21
-1.983430
 12
2.141194
 22
-2.104188
 13
2.141194
 23
-2.104188
  0
LINE
  8
Layer0$C$L0
 10
2.141194
 20
-2.104188
 11
2.976391
 21
-1.416382
  0
LINE
  8
Layer0$C$L0
 10
2.976391
 20
-1.416382
 11
3.142764
 21
-1.416382
  0
TEXT
  8
Layer0$C$L0
 10
3.205264
 20
-1.478882
 40
0.125000
  1
.20
 72
     5
 11
3.546839
 21
-1.478882
  0
ENDBLK
  8
Layer0$C$L0
  0
BLOCK
  8
Layer0$C$L0
  2
*D1
 70
     1
 10
0.000000
 20
0.000000
  0
SOLID
  8
Layer0$C$L0
 62
     0
 10
-0.240854
 20
-4.578392
 11
-0.301722
 21
-4.578392
 12
-0.271288
 22
-4.731395
 13
-0.271288
 23
-4.731395
  0
LINE
  8
Layer0$C$L0
 10
-0.271288
 20
-4.731395
 11
-0.271288
 21
-3.103658
  0
SOLID
  8
Layer0$C$L0
 62
     0
 10
-0.301722
 20
-2.009397
 11
-0.240854
 21
-2.009397
 12
-0.271288
 22
-1.856395
 13
-0.271288
 23
-1.856395
  0
LINE
  8
Layer0$C$L0
 10
-0.271288
 20
-1.856395
 11
-0.271288
 21
-2.853658
  0
LINE
  8
Layer0$C$L0
  6
GAP
 10
0.670325
 20
-4.731395
 11
-0.421288
 21
-4.731395
  0
LINE
  8
Layer0$C$L0
  6
GAP
 10
0.670325
 20
-1.856395
 11
-0.421288
 21
-1.856395
  0
TEXT
  8
Layer0$C$L0
 10
-0.504576
 20
-3.041158
 40
0.125000
  1
2.87
 72
     5
 11
-3.800064E-02
 21
-3.041158
  0
ENDBLK
  8
Layer0$C$L0
  0
BLOCK
  8
Layer0$C$L0
  2
*D2
 70
     1
 10
0.000000
 20
0.000000
  0
SOLID
  8
Layer0$C$L0
 62
     0
 10
0.262361
 20
-4.265393
 11
0.201492
 21
-4.265393
 12
0.231927
 22
-4.418395
 13
0.231927
 23
-4.418395
  0
LINE
  8
Layer0$C$L0
 10
0.231927
 20
-4.418395
 11
0.231926
 21
-3.443668
  0
SOLID
  8
Layer0$C$L0
 62
     0
 10
0.201492
 20
-2.321397
 11
0.262360
 21
-2.321397
 12
0.231926
 22
-2.168394
 13
0.231926
 23
-2.168394
  0
LINE
  8
Layer0$C$L0
 10
0.231926
 20
-2.168394
 11
0.231926
 21
-3.193668
  0
LINE
  8
Layer0$C$L0
  6
GAP
 10
0.963597
 20
-4.418395
 11
8.192638E-02
 21
-4.418395
  0
LINE
  8
Layer0$C$L0
  6
GAP
 10
0.951871
 20
-2.168394
 11
8.192670E-02
 21
-2.168394
  0
TEXT
  8
Layer0$C$L0
 10
-1.361251E-03
 20
-3.381168
 40
0.125000
  1
2.25
 72
     5
 11
0.465214
 21
-3.381168
  0
ENDBLK
  8
Layer0$C$L0
  0
BLOCK
  8
Layer0$C$L0
  2
*D3
 70
     1
 10
0.000000
 20
0.000000
  0
SOLID
  8
Layer0$C$L0
 62
     0
 10
0.216992
 20
-4.884397
 11
0.277860
 21
-4.884397
 12
0.247426
 22
-4.731395
 13
0.247426
 23
-4.731395
  0
LINE
  8
Layer0$C$L0
 10
0.247426
 20
-4.731395
 11
0.247426
 21
-5.111324
  0
SOLID
  8
Layer0$C$L0
 62
     0
 10
0.277860
 20
-4.265393
 11
0.216992
 21
-4.265393
 12
0.247426
 22
-4.418395
 13
0.247426
 23
-4.418395
  0
LINE
  8
Layer0$C$L0
 10
0.247426
 20
-4.418395
 11
0.247426
 21
-4.018395
  0
TEXT
  8
Layer0$C$L0
  6
GAP
 10
7.663876E-02
 20
-5.298824
 40
0.125000
  1
.31
 72
     5
 11
0.418214
 21
-5.298824
  0
ENDBLK
  8
Layer0$C$L0
  0
BLOCK
  8
Layer0$C$L0
  2
*D4
 70
     1
 10
0.000000
 20
0.000000
  0
SOLID
  8
Layer0$C$L0
 62
     0
 10
0.923327
 20
-5.266758
 11
0.923327
 21
-5.205890
 12
0.770325
 22
-5.236324
 13
0.770325
 23
-5.236324
  0
SOLID
  8
Layer0$C$L0
 62
     0
 10
1.095226
 20
-5.205890
 11
1.095226
 21
-5.266758
 12
1.248228
 22
-5.236324
 13
1.248228
 23
-5.236324
  0
LINE
  8
Layer0$C$L0
 10
0.770325
 20
-5.236324
 11
1.248228
 21
-5.236324
  0
LINE
  8
Layer0$C$L0
 10
1.248228
 20
-5.236324
 11
1.482982
 21
-5.236324
  0
LINE
  8
Layer0$C$L0
  6
GAP
 10
0.770325
 20
-4.855235
 11
0.770325
 21
-5.386324
  0
TEXT
  8
Layer0$C$L0
  6
GAP
 10
1.545482
 20
-5.298824
 40
0.125000
  1
.48
 72
     5
 11
1.887057
 21
-5.298824
  0
ENDBLK
  8
Layer0$C$L0
  0
BLOCK
  8
Layer0$C$L0
  2
*D5
 70
     1
 10
0.000000
 20
0.000000
  0
SOLID
  8
Layer0$C$L0
 62
     0
 10
1.401231
 20
-5.769973
 11
1.401231
 21
-5.709105
 12
1.248228
 22
-5.739539
 13
1.248228
 23
-5.739539
  0
SOLID
  8
Layer0$C$L0
 62
     0
 10
1.910226
 20
-5.709105
 11
1.910226
 21
-5.769973
 12
2.063229
 22
-5.739539
 13
2.063229
 23
-5.739539
  0
LINE
  8
Layer0$C$L0
 10
1.248228
 20
-5.739539
 11
2.063229
 21
-5.739539
  0
LINE
  8
Layer0$C$L0
 10
1.248228
 20
-5.739539
 11
1.057338
 21
-5.739539
  0
LINE
  8
Layer0$C$L0
  6
GAP
 10
1.248228
 20
-4.754768
 11
1.248228
 21
-5.889539
  0
LINE
  8
Layer0$C$L0
  6
GAP
 10
2.063229
 20
-4.754768
 11
2.063229
 21
-5.889539
  0
TEXT
  8
Layer0$C$L0
 10
0.653262
 20
-5.802039
 40
0.125000
  1
.82
 72
     5
 11
0.994838
 21
-5.802039
  0
ENDBLK
  8
Layer0$C$L0
  0
BLOCK
  8
Layer0$C$L0
  2
*D6
 70
     1
 10
0.000000
 20
0.000000
  0
SOLID
  8
Layer0$C$L0
 62
     0
 10
0.223777
 20
-6.200115
 11
0.284645
 21
-6.200115
 12
0.254211
 22
-6.047112
 13
0.254211
 23
-6.047112
  0
LINE
  8
Layer0$C$L0
 10
0.254211
 20
-6.047112
 11
0.254211
 21
-6.946637
  0
SOLID
  8
Layer0$C$L0
 62
     0
 10
0.284645
 20
-7.902638
 11
0.223777
 21
-7.902638
 12
0.254211
 22
-8.055640
 13
0.254211
 23
-8.055640
  0
LINE
  8
Layer0$C$L0
 10
0.254211
 20
-8.055640
 11
0.254211
 21
-7.196637
  0
LINE
  8
Layer0$C$L0
  6
GAP
 10
0.738434
 20
-6.047112
 11
0.104211
 21
-6.047112
  0
LINE
  8
Layer0$C$L0
  6
GAP
 10
0.738434
 20
-8.055640
 11
0.104211
 21
-8.055640
  0
TEXT
  8
Layer0$C$L0
 10
2.092305E-02
 20
-7.134137
 40
0.125000
  1
2.01
 72
     5
 11
0.487498
 21
-7.134137
  0
ENDBLK
  8
Layer0$C$L0
  0
BLOCK
  8
Layer0$C$L0
  2
*D7
 70
     1
 10
0.000000
 20
0.000000
  0
SOLID
  8
Layer0$C$L0
 62
     0
 10
0.922903
 20
-8.585255
 11
0.922903
 21
-8.524387
 12
0.769900
 22
-8.554821
 13
0.769900
 23
-8.554821
  0
LINE
  8
Layer0$C$L0
 10
0.769900
 20
-8.554821
 11
1.296179
 21
-8.554821
  0
SOLID
  8
Layer0$C$L0
 62
     0
 10
2.385117
 20
-8.524387
 11
2.385117
 21
-8.585255
 12
2.538119
 22
-8.554821
 13
2.538119
 23
-8.554821
  0
LINE
  8
Layer0$C$L0
 10
2.538119
 20
-8.554821
 11
1.887754
 21
-8.554821
  0
LINE
  8
Layer0$C$L0
  6
GAP
 10
0.769900
 20
-8.155640
 11
0.769900
 21
-8.704821
  0
LINE
  8
Layer0$C$L0
  6
GAP
 10
2.538119
 20
-8.155640
 11
2.538119
 21
-8.704821
  0
TEXT
  8
Layer0$C$L0
 10
1.358679
 20
-8.617321
 40
0.125000
  1
1.77
 72
     5
 11
1.825254
 21
-8.617321
  0
ENDBLK
  8
Layer0$C$L0
  0
BLOCK
  8
Layer0$C$L0
  2
*D8
 70
     1
 10
0.000000
 20
0.000000
  0
SOLID
  8
Layer0$C$L0
 62
     0
 10
3.011541
 20
-7.902638
 11
2.950672
 21
-7.902638
 12
2.981107
 22
-8.055640
 13
2.981107
 23
-8.055640
  0
LINE
  8
Layer0$C$L0
 10
2.981107
 20
-8.055640
 11
2.981107
 21
-7.659791
  0
SOLID
  8
Layer0$C$L0
 62
     0
 10
2.950672
 20
-7.323643
 11
3.011541
 21
-7.323643
 12
2.981107
 22
-7.170641
 13
2.981107
 23
-7.170641
  0
LINE
  8
Layer0$C$L0
 10
2.981107
 20
-7.170641
 11
2.981107
 21
-7.409791
  0
LINE
  8
Layer0$C$L0
  6
GAP
 10
2.385029
 20
-7.170641
 11
3.131107
 21
-7.170641
  0
TEXT
  8
Layer0$C$L0
 10
2.810319
 20
-7.597291
 40
0.125000
  1
.88
 72
     5
 11
3.151894
 21
-7.597291
  0
ENDBLK
  8
Layer0$C$L0
  0
BLOCK
  8
Layer0$C$L0
  2
*D9
 70
     1
 10
0.000000
 20
0.000000
  0
SOLID
  8
Layer0$C$L0
 62
     0
 10
3.499255
 20
-7.902638
 11
3.438387
 21
-7.902638
 12
3.468821
 22
-8.055640
 13
3.468821
 23
-8.055640
  0
LINE
  8
Layer0$C$L0
 10
3.468821
 20
-8.055640
 11
3.468821
 21
-7.537387
  0
SOLID
  8
Layer0$C$L0
 62
     0
 10
3.438387
 20
-6.978643
 11
3.499255
 21
-6.978643
 12
3.468821
 22
-6.825641
 13
3.468821
 23
-6.825641
  0
LINE
  8
Layer0$C$L0
 10
3.468821
 20
-6.825641
 11
3.468821
 21
-7.287387
  0
LINE
  8
Layer0$C$L0
  6
GAP
 10
2.378838
 20
-6.825641
 11
3.618821
 21
-6.825641
  0
TEXT
  8
Layer0$C$L0
 10
3.235533
 20
-7.474887
 40
0.125000
  1
1.23
 72
     5
 11
3.702109
 21
-7.474887
  0
ENDBLK
  8
Layer0$C$L0
  0
BLOCK
  8
Layer0$C$L0
  2
*D10
 70
     1
 10
0.000000
 20
0.000000
  0
SOLID
  8
Layer0$C$L0
 62
     0
 10
3.941602
 20
-6.270643
 11
4.002470
 21
-6.270643
 12
3.972036
 22
-6.117640
 13
3.972036
 23
-6.117640
  0
LINE
  8
Layer0$C$L0
 10
3.972036
 20
-6.117640
 11
3.972036
 21
-6.947378
  0
SOLID
  8
Layer0$C$L0
 62
     0
 10
4.002470
 20
-7.902638
 11
3.941602
 21
-7.902638
 12
3.972036
 22
-8.055640
 13
3.972036
 23
-8.055640
  0
LINE
  8
Layer0$C$L0
 10
3.972036
 20
-8.055640
 11
3.972036
 21
-7.197378
  0
LINE
  8
Layer0$C$L0
  6
GAP
 10
2.658968
 20
-6.117640
 11
4.122036
 21
-6.117640
  0
LINE
  8
Layer0$C$L0
  6
GAP
 10
2.499900
 20
-8.055640
 11
4.122036
 21
-8.055640
  0
TEXT
  8
Layer0$C$L0
 10
3.738748
 20
-7.134878
 40
0.125000
  1
1.94
 72
     5
 11
4.205324
 21
-7.134878
  0
ENDBLK
  8
Layer0$C$L0
  0
BLOCK
  8
Layer0$C$L0
  2
*D11
 70
     1
 10
0.000000
 20
0.000000
  0
SOLID
  8
Layer0$C$L0
 62
     0
 10
7.975993
 20
-7.902638
 11
7.915124
 21
-7.902638
 12
7.945559
 22
-8.055640
 13
7.945559
 23
-8.055640
  0
LINE
  8
Layer0$C$L0
 10
7.945559
 20
-8.055640
 11
7.945559
 21
-7.654394
  0
SOLID
  8
Layer0$C$L0
 62
     0
 10
7.915124
 20
-7.210643
 11
7.975993
 21
-7.210643
 12
7.945559
 22
-7.057641
 13
7.945559
 23
-7.057641
  0
LINE
  8
Layer0$C$L0
 10
7.945559
 20
-7.057641
 11
7.945559
 21
-7.404394
  0
LINE
  8
Layer0$C$L0
  6
GAP
 10
7.602571
 20
-8.055640
 11
8.095559
 21
-8.055640
  0
LINE
  8
Layer0$C$L0
  6
GAP
 10
7.171086
 20
-7.057641
 11
8.095559
 21
-7.057641
  0
TEXT
  8
Layer0$C$L0
 10
7.712271
 20
-7.591894
 40
0.125000
  1
1.00
 72
     5
 11
8.178846
 21
-7.591894
  0
ENDBLK
  8
Layer0$C$L0
  0
BLOCK
  8
Layer55$C$L55
  2
*X0
 70
     1
 10
0.000000
 20
0.000000
  0
LINE
  8
Layer0$C$L0
 10
-4.465036
 20
1.101342
 11
-4.456174
 21
1.110204
  0
LINE
  8
Layer0$C$L0
 10
-4.445858
 20
1.141734
 11
-4.496564
 21
1.091026
  0
LINE
  8
Layer0$C$L0
 10
-4.506448
 20
1.102355
 11
-4.517778
 21
1.091026
  0
LINE
  8
Layer0$C$L0
 10
-4.445858
 20
1.162946
 11
-4.487188
 21
1.121617
  0
LINE
  8
Layer0$C$L0
 10
-4.529142
 20
1.100875
 11
-4.538991
 21
1.091026
  0
LINE
  8
Layer0$C$L0
 10
-4.445858
 20
1.184160
 11
-4.485708
 21
1.144310
  0
LINE
  8
Layer0$C$L0
 10
-4.550355
 20
1.100875
 11
-4.560205
 21
1.091026
  0
LINE
  8
Layer0$C$L0
 10
-4.460456
 20
1.190774
 11
-4.486736
 21
1.164495
  0
LINE
  8
Layer0$C$L0
 10
-4.568008
 20
1.104434
 11
-4.581106
 21
1.091339
  0
LINE
  8
Layer0$C$L0
 10
-4.481668
 20
1.190774
 11
-4.496688
 21
1.175756
  0
LINE
  8
Layer0$C$L0
 10
-4.445835
 20
1.226610
 11
-4.456441
 21
1.216003
  0
LINE
  8
Layer0$C$L0
 10
-4.578947
 20
1.114710
 11
-4.596979
 21
1.096679
  0
LINE
  8
Layer0$C$L0
 10
-4.502882
 20
1.190774
 11
-4.515695
 21
1.177963
  0
LINE
  8
Layer0$C$L0
 10
-4.446043
 20
1.247614
 11
-4.477655
 21
1.216003
  0
LINE
  8
Layer0$C$L0
 10
-4.583850
 20
1.131019
 11
-4.609207
 21
1.105664
  0
LINE
  8
Layer0$C$L0
 10
-4.524095
 20
1.190774
 11
-4.530670
 21
1.184201
  0
LINE
  8
Layer0$C$L0
 10
-4.451227
 20
1.263644
 11
-4.485633
 21
1.229237
  0
LINE
  8
Layer0$C$L0
 10
-4.583850
 20
1.152233
 11
-4.618082
 21
1.118000
  0
LINE
  8
Layer0$C$L0
 10
-4.460109
 20
1.275975
 11
-4.485633
 21
1.250450
  0
LINE
  8
Layer0$C$L0
 10
-4.583850
 20
1.173445
 11
-4.623136
 21
1.134160
  0
LINE
  8
Layer0$C$L0
 10
-4.472221
 20
1.285075
 11
-4.490362
 21
1.266935
  0
LINE
  8
Layer0$C$L0
 10
-4.583850
 20
1.194659
 11
-4.623600
 21
1.154909
  0
LINE
  8
Layer0$C$L0
 10
-4.488332
 20
1.290177
 11
-4.501300
 21
1.277210
  0
LINE
  8
Layer0$C$L0
 10
-4.583850
 20
1.215872
 11
-4.623600
 21
1.176123
  0
LINE
  8
Layer0$C$L0
 10
-4.508995
 20
1.290728
 11
-4.518692
 21
1.281031
  0
LINE
  8
Layer0$C$L0
 10
-4.583850
 20
1.237085
 11
-4.623600
 21
1.197337
  0
LINE
  8
Layer0$C$L0
 10
-4.530208
 20
1.290728
 11
-4.539905
 21
1.281031
  0
LINE
  8
Layer0$C$L0
 10
-4.582122
 20
1.260027
 11
-4.623600
 21
1.218549
  0
LINE
  8
Layer0$C$L0
 10
-4.551422
 20
1.290728
 11
-4.562860
 21
1.279289
  0
LINE
  8
Layer0$C$L0
 10
-4.572635
 20
1.290728
 11
-4.623600
 21
1.239763
  0
LINE
  8
Layer0$C$L0
 10
-4.604272
 20
1.280303
 11
-4.613136
 21
1.271441
  0
ENDBLK
  8
Layer0$C$L0
  0
BLOCK
  8
Layer55$C$L55
  2
*X1
 70
     1
 10
0.000000
 20
0.000000
  0
LINE
  8
Layer0$C$L0
 10
-4.273023
 20
1.091120
 11
-4.227951
 21
1.136193
  0
LINE
  8
Layer0$C$L0
 10
-4.227609
 20
1.157749
 11
-4.294580
 21
1.090778
  0
LINE
  8
Layer0$C$L0
 10
-4.305591
 20
1.100981
 11
-4.315794
 21
1.090778
  0
LINE
  8
Layer0$C$L0
 10
-4.227609
 20
1.178962
 11
-4.267810
 21
1.138759
  0
LINE
  8
Layer0$C$L0
 10
-4.326803
 20
1.100981
 11
-4.337007
 21
1.090778
  0
LINE
  8
Layer0$C$L0
 10
-4.227609
 20
1.200175
 11
-4.267810
 21
1.159973
  0
LINE
  8
Layer0$C$L0
 10
-4.346269
 20
1.102729
 11
-4.357912
 21
1.091087
  0
LINE
  8
Layer0$C$L0
 10
-4.227609
 20
1.221388
 11
-4.267810
 21
1.181185
  0
LINE
  8
Layer0$C$L0
 10
-4.358665
 20
1.111546
 11
-4.375394
 21
1.094818
  0
LINE
  8
Layer0$C$L0
 10
-4.227746
 20
1.242463
 11
-4.267810
 21
1.202399
  0
LINE
  8
Layer0$C$L0
 10
-4.365289
 20
1.126134
 11
-4.388381
 21
1.103042
  0
LINE
  8
Layer0$C$L0
 10
-4.231533
 20
1.259890
 11
-4.267810
 21
1.223612
  0
LINE
  8
Layer0$C$L0
 10
-4.365602
 20
1.147035
 11
-4.398153
 21
1.114484
  0
LINE
  8
Layer0$C$L0
 10
-4.239507
 20
1.273129
 11
-4.267810
 21
1.244825
  0
LINE
  8
Layer0$C$L0
 10
-4.365602
 20
1.168248
 11
-4.404340
 21
1.129511
  0
LINE
  8
Layer0$C$L0
 10
-4.250837
 20
1.283014
 11
-4.270483
 21
1.263367
  0
LINE
  8
Layer0$C$L0
 10
-4.365602
 20
1.189461
 11
-4.405706
 21
1.149359
  0
LINE
  8
Layer0$C$L0
 10
-4.265731
 20
1.289332
 11
-4.279994
 21
1.275069
  0
LINE
  8
Layer0$C$L0
 10
-4.365602
 20
1.210674
 11
-4.405706
 21
1.170572
  0
LINE
  8
Layer0$C$L0
 10
-4.285442
 20
1.290834
 11
-4.295511
 21
1.280766
  0
LINE
  8
Layer0$C$L0
 10
-4.365602
 20
1.231887
 11
-4.405706
 21
1.191785
  0
LINE
  8
Layer0$C$L0
 10
-4.306657
 20
1.290834
 11
-4.316707
 21
1.280784
  0
LINE
  8
Layer0$C$L0
 10
-4.365797
 20
1.252907
 11
-4.405706
 21
1.212999
  0
LINE
  8
Layer0$C$L0
 10
-4.327869
 20
1.290834
 11
-4.337739
 21
1.280964
  0
LINE
  8
Layer0$C$L0
 10
-4.349082
 20
1.290834
 11
-4.405706
 21
1.234211
  0
LINE
  8
Layer0$C$L0
 10
-4.373939
 20
1.287191
 11
-4.402023
 21
1.259108
  0
ENDBLK
  8
Layer0$C$L0
  0
BLOCK
  8
Layer55$C$L55
  2
*X2
 70
     1
 10
0.000000
 20
0.000000
  0
LINE
  8
Layer0$C$L0
 10
-4.048709
 20
1.091990
 11
-4.010820
 21
1.129878
  0
LINE
  8
Layer0$C$L0
 10
-4.009714
 20
1.152197
 11
-4.071027
 21
1.090884
  0
LINE
  8
Layer0$C$L0
 10
-4.082391
 20
1.100733
 11
-4.092241
 21
1.090884
  0
LINE
  8
Layer0$C$L0
 10
-4.009714
 20
1.173411
 11
-4.049564
 21
1.133561
  0
LINE
  8
Layer0$C$L0
 10
-4.103605
 20
1.100733
 11
-4.113454
 21
1.090884
  0
LINE
  8
Layer0$C$L0
 10
-4.009714
 20
1.194624
 11
-4.049564
 21
1.154775
  0
LINE
  8
Layer0$C$L0
 10
-4.124101
 20
1.101449
 11
-4.134668
 21
1.090884
  0
LINE
  8
Layer0$C$L0
 10
-4.009714
 20
1.215837
 11
-4.049564
 21
1.175988
  0
LINE
  8
Layer0$C$L0
 10
-4.137985
 20
1.108778
 11
-4.153299
 21
1.093465
  0
LINE
  8
Layer0$C$L0
 10
-4.009714
 20
1.237050
 11
-4.049564
 21
1.197201
  0
LINE
  8
Layer0$C$L0
 10
-4.146305
 20
1.121672
 11
-4.167375
 21
1.100603
  0
LINE
  8
Layer0$C$L0
 10
-4.009714
 20
1.258264
 11
-4.049564
 21
1.218415
  0
LINE
  8
Layer0$C$L0
 10
-4.147707
 20
1.141484
 11
-4.177986
 21
1.111205
  0
LINE
  8
Layer0$C$L0
 10
-4.009714
 20
1.279477
 11
-4.049564
 21
1.239627
  0
LINE
  8
Layer0$C$L0
 10
-4.147707
 20
1.162696
 11
-4.185119
 21
1.125285
  0
LINE
  8
Layer0$C$L0
 10
-4.019567
 20
1.290838
 11
-4.049564
 21
1.260841
  0
LINE
  8
Layer0$C$L0
 10
-4.147707
 20
1.183910
 11
-4.187810
 21
1.143808
  0
LINE
  8
Layer0$C$L0
 10
-4.040781
 20
1.290838
 11
-4.049564
 21
1.282054
  0
LINE
  8
Layer0$C$L0
 10
-4.147707
 20
1.205123
 11
-4.187810
 21
1.165020
  0
LINE
  8
Layer0$C$L0
 10
-4.147707
 20
1.226336
 11
-4.187810
 21
1.186234
  0
LINE
  8
Layer0$C$L0
 10
-4.147707
 20
1.247549
 11
-4.187810
 21
1.207447
  0
LINE
  8
Layer0$C$L0
 10
-4.147707
 20
1.268763
 11
-4.187810
 21
1.228660
  0
LINE
  8
Layer0$C$L0
 10
-4.147707
 20
1.289976
 11
-4.187810
 21
1.249874
  0
LINE
  8
Layer0$C$L0
 10
-4.168117
 20
1.290780
 11
-4.187810
 21
1.271087
  0
ENDBLK
  8
Layer0$C$L0
  0
BLOCK
  8
Layer55$C$L55
  2
*X3
 70
     1
 10
0.000000
 20
0.000000
  0
LINE
  8
Layer0$C$L0
 10
-3.809394
 20
1.090887
 11
-3.799446
 21
1.100837
  0
LINE
  8
Layer0$C$L0
 10
-3.820657
 20
1.100837
 11
-3.830608
 21
1.090887
  0
LINE
  8
Layer0$C$L0
 10
-3.851821
 20
1.090887
 11
-3.841871
 21
1.100837
  0
LINE
  8
Layer0$C$L0
 10
-3.863084
 20
1.100837
 11
-3.873035
 21
1.090887
  0
LINE
  8
Layer0$C$L0
 10
-3.894247
 20
1.090887
 11
-3.884298
 21
1.100837
  0
LINE
  8
Layer0$C$L0
 10
-3.905511
 20
1.100837
 11
-3.915460
 21
1.090887
  0
LINE
  8
Layer0$C$L0
 10
-3.936674
 20
1.090887
 11
-3.926725
 21
1.100837
  0
LINE
  8
Layer0$C$L0
 10
-3.929611
 20
1.119165
 11
-3.957887
 21
1.090887
  0
LINE
  8
Layer0$C$L0
 10
-3.969812
 20
1.100175
 11
-3.929611
 21
1.140377
  0
LINE
  8
Layer0$C$L0
 10
-3.929611
 20
1.161591
 11
-3.969812
 21
1.121388
  0
LINE
  8
Layer0$C$L0
 10
-3.969812
 20
1.142601
 11
-3.929611
 21
1.182804
  0
LINE
  8
Layer0$C$L0
 10
-3.929611
 20
1.204017
 11
-3.969812
 21
1.163815
  0
LINE
  8
Layer0$C$L0
 10
-3.969812
 20
1.185027
 11
-3.929611
 21
1.225231
  0
LINE
  8
Layer0$C$L0
 10
-3.929611
 20
1.246444
 11
-3.969812
 21
1.206241
  0
LINE
  8
Layer0$C$L0
 10
-3.969812
 20
1.227455
 11
-3.929611
 21
1.267657
  0
LINE
  8
Layer0$C$L0
 10
-3.929611
 20
1.288870
 11
-3.969812
 21
1.248667
  0
LINE
  8
Layer0$C$L0
 10
-3.969812
 20
1.269881
 11
-3.948808
 21
1.290885
  0
ENDBLK
  8
Layer0$C$L0
  0
BLOCK
  8
Layer55$C$L55
  2
*X4
 70
     1
 10
0.000000
 20
0.000000
  0
LINE
  8
Layer0$C$L0
 10
-3.622785
 20
1.090821
 11
-3.573707
 21
1.139898
  0
LINE
  8
Layer0$C$L0
 10
-3.631633
 20
1.103185
 11
-3.644077
 21
1.090742
  0
LINE
  8
Layer0$C$L0
 10
-3.573572
 20
1.161248
 11
-3.616016
 21
1.118803
  0
LINE
  8
Layer0$C$L0
 10
-3.655088
 20
1.100944
 11
-3.665290
 21
1.090742
  0
LINE
  8
Layer0$C$L0
 10
-3.573572
 20
1.182461
 11
-3.613775
 21
1.142258
  0
LINE
  8
Layer0$C$L0
 10
-3.676301
 20
1.100944
 11
-3.686504
 21
1.090742
  0
LINE
  8
Layer0$C$L0
 10
-3.573572
 20
1.203674
 11
-3.613775
 21
1.163472
  0
LINE
  8
Layer0$C$L0
 10
-3.697515
 20
1.100944
 11
-3.707717
 21
1.090742
  0
LINE
  8
Layer0$C$L0
 10
-3.573572
 20
1.224887
 11
-3.613775
 21
1.184684
  0
LINE
  8
Layer0$C$L0
 10
-3.711715
 20
1.107956
 11
-3.728931
 21
1.090742
  0
LINE
  8
Layer0$C$L0
 10
-3.574008
 20
1.245662
 11
-3.613775
 21
1.205898
  0
LINE
  8
Layer0$C$L0
 10
-3.711715
 20
1.129170
 11
-3.750144
 21
1.090742
  0
LINE
  8
Layer0$C$L0
 10
-3.578592
 20
1.262292
 11
-3.613775
 21
1.227111
  0
LINE
  8
Layer0$C$L0
 10
-3.711715
 20
1.150382
 11
-3.751565
 21
1.110533
  0
LINE
  8
Layer0$C$L0
 10
-3.587127
 20
1.274972
 11
-3.613775
 21
1.248324
  0
LINE
  8
Layer0$C$L0
 10
-3.711715
 20
1.171596
 11
-3.751565
 21
1.131747
  0
LINE
  8
Layer0$C$L0
 10
-3.599020
 20
1.284292
 11
-3.617603
 21
1.265708
  0
LINE
  8
Layer0$C$L0
 10
-3.711715
 20
1.192809
 11
-3.751565
 21
1.152960
  0
LINE
  8
Layer0$C$L0
 10
-3.614437
 20
1.290089
 11
-3.628059
 21
1.276465
  0
LINE
  8
Layer0$C$L0
 10
-3.711715
 20
1.214022
 11
-3.751565
 21
1.174173
  0
LINE
  8
Layer0$C$L0
 10
-3.634941
 20
1.290797
 11
-3.644990
 21
1.280747
  0
LINE
  8
Layer0$C$L0
 10
-3.711715
 20
1.235236
 11
-3.751565
 21
1.195386
  0
LINE
  8
Layer0$C$L0
 10
-3.656154
 20
1.290797
 11
-3.666204
 21
1.280747
  0
LINE
  8
Layer0$C$L0
 10
-3.711715
 20
1.256448
 11
-3.751565
 21
1.216600
  0
LINE
  8
Layer0$C$L0
 10
-3.677368
 20
1.290797
 11
-3.687418
 21
1.280747
  0
LINE
  8
Layer0$C$L0
 10
-3.711715
 20
1.277662
 11
-3.751565
 21
1.237812
  0
LINE
  8
Layer0$C$L0
 10
-3.698581
 20
1.290797
 11
-3.708631
 21
1.280747
  0
LINE
  8
Layer0$C$L0
 10
-3.719793
 20
1.290797
 11
-3.751565
 21
1.259026
  0
LINE
  8
Layer0$C$L0
 10
-3.741006
 20
1.290797
 11
-3.751565
 21
1.280239
  0
ENDBLK
  8
Layer0$C$L0
  0
BLOCK
  8
Layer55$C$L55
  2
*X5
 70
     1
 10
0.000000
 20
0.000000
  0
LINE
  8
Layer0$C$L0
 10
-4.799345
 20
1.091867
 11
-4.800053
 21
1.091160
  0
LINE
  8
Layer0$C$L0
 10
-4.699345
 20
1.191867
 11
-4.700053
 21
1.191159
  0
LINE
  8
Layer0$C$L0
 10
-4.799345
 20
1.113080
 11
-4.821267
 21
1.091160
  0
LINE
  8
Layer0$C$L0
 10
-4.699345
 20
1.213081
 11
-4.721266
 21
1.191159
  0
LINE
  8
Layer0$C$L0
 10
-4.799345
 20
1.134294
 11
-4.842480
 21
1.091160
  0
LINE
  8
Layer0$C$L0
 10
-4.699345
 20
1.234293
 11
-4.742480
 21
1.191159
  0
LINE
  8
Layer0$C$L0
 10
-4.799345
 20
1.155506
 11
-4.863692
 21
1.091160
  0
LINE
  8
Layer0$C$L0
 10
-4.699345
 20
1.255507
 11
-4.763693
 21
1.191159
  0
LINE
  8
Layer0$C$L0
 10
-4.799345
 20
1.176720
 11
-4.884905
 21
1.091160
  0
LINE
  8
Layer0$C$L0
 10
-4.699345
 20
1.276719
 11
-4.784905
 21
1.191159
  0
LINE
  8
Layer0$C$L0
 10
-4.705914
 20
1.291365
 11
-4.906119
 21
1.091160
  0
LINE
  8
Layer0$C$L0
 10
-4.727128
 20
1.291365
 11
-4.775778
 21
1.242714
  0
LINE
  8
Layer0$C$L0
 10
-4.748341
 20
1.291365
 11
-4.785923
 21
1.253783
  0
LINE
  8
Layer0$C$L0
 10
-4.769555
 20
1.291365
 11
-4.796069
 21
1.264850
  0
LINE
  8
Layer0$C$L0
 10
-4.790766
 20
1.291365
 11
-4.806214
 21
1.275918
  0
LINE
  8
Layer0$C$L0
 10
-4.799401
 20
1.303944
 11
-4.816359
 21
1.286986
  0
LINE
  8
Layer0$C$L0
 10
-4.799401
 20
1.325156
 11
-4.826504
 21
1.298053
  0
LINE
  8
Layer0$C$L0
 10
-4.799401
 20
1.346370
 11
-4.836649
 21
1.309121
  0
LINE
  8
Layer0$C$L0
 10
-4.799401
 20
1.367584
 11
-4.846797
 21
1.320189
  0
LINE
  8
Layer0$C$L0
 10
-4.799401
 20
1.388796
 11
-4.856942
 21
1.331256
  0
LINE
  8
Layer0$C$L0
 10
-4.817990
 20
1.391420
 11
-4.867087
 21
1.342324
  0
LINE
  8
Layer0$C$L0
 10
-4.839203
 20
1.391420
 11
-4.877232
 21
1.353392
  0
LINE
  8
Layer0$C$L0
 10
-4.860417
 20
1.391420
 11
-4.887377
 21
1.364460
  0
LINE
  8
Layer0$C$L0
 10
-4.881630
 20
1.391420
 11
-4.897522
 21
1.375528
  0
LINE
  8
Layer0$C$L0
 10
-4.902844
 20
1.391420
 11
-4.907668
 21
1.386595
  0
ENDBLK
  8
Layer0$C$L0
  0
BLOCK
  8
Layer55$C$L55
  2
*X6
 70
     1
 10
0.000000
 20
0.000000
  0
LINE
  8
Layer0$C$L0
 10
-4.869452
 20
1.191466
 11
-4.849652
 21
1.211266
  0
LINE
  8
Layer0$C$L0
 10
-4.849652
 20
1.232479
 11
-4.890666
 21
1.191466
  0
LINE
  8
Layer0$C$L0
 10
-4.911877
 20
1.191466
 11
-4.849652
 21
1.253692
  0
LINE
  8
Layer0$C$L0
 10
-4.849652
 20
1.274905
 11
-4.933091
 21
1.191466
  0
LINE
  8
Layer0$C$L0
 10
-4.954304
 20
1.191466
 11
-4.854453
 21
1.291318
  0
LINE
  8
Layer0$C$L0
 10
-4.875666
 20
1.291318
 11
-4.975518
 21
1.191466
  0
LINE
  8
Layer0$C$L0
 10
-4.996731
 20
1.191466
 11
-4.896880
 21
1.291318
  0
LINE
  8
Layer0$C$L0
 10
-4.918093
 20
1.291318
 11
-5.011866
 21
1.197544
  0
LINE
  8
Layer0$C$L0
 10
-5.011866
 20
1.218758
 11
-4.939307
 21
1.291318
  0
LINE
  8
Layer0$C$L0
 10
-4.960520
 20
1.291318
 11
-5.011866
 21
1.239970
  0
LINE
  8
Layer0$C$L0
 10
-5.011866
 20
1.261184
 11
-4.981732
 21
1.291318
  0
LINE
  8
Layer0$C$L0
 10
-5.002945
 20
1.291318
 11
-5.011866
 21
1.282398
  0
ENDBLK
  8
Layer0$C$L0
  0
BLOCK
  8
Layer0$C$L0
  2
SCREW-SIDE
 70
     0
 10
0.000000
 20
0.000000
  0
POINT
  8
Layer0$C$L0
 10
0.000000
 20
0.000000
  0
LINE
  8
Layer0$C$L0
 10
-0.158852
 20
1.067162E-02
 11
-0.158852
 21
6.966543E-02
  0
LINE
  8
Layer0$C$L0
 10
-0.158852
 20
6.567144E-02
 11
0.153148
 21
6.567144E-02
  0
POLYLINE
  8
Layer0$C$L0
 66
     1
  0
VERTEX
  8
Layer0$C$L0
 10
0.153649
 20
6.567144E-02
  0
VERTEX
  8
Layer0$C$L0
 10
0.152893
 20
7.057953E-02
  0
VERTEX
  8
Layer0$C$L0
 10
0.150633
 20
7.544021E-02
  0
VERTEX
  8
Layer0$C$L0
 10
0.146890
 20
8.020654E-02
  0
VERTEX
  8
Layer0$C$L0
 10
0.141701
 20
8.483247E-02
  0
VERTEX
  8
Layer0$C$L0
 10
0.135116
 20
8.927332E-02
  0
VERTEX
  8
Layer0$C$L0
 10
0.127198
 20
9.348620E-02
  0
VERTEX
  8
Layer0$C$L0
 10
0.118024
 20
9.743041E-02
  0
VERTEX
  8
Layer0$C$L0
 10
0.107682
 20
0.101068
  0
VERTEX
  8
Layer0$C$L0
 10
9.627273E-02
 20
0.104363
  0
VERTEX
  8
Layer0$C$L0
 10
8.390604E-02
 20
0.107285
  0
VERTEX
  8
Layer0$C$L0
 10
7.070135E-02
 20
0.109805
  0
VERTEX
  8
Layer0$C$L0
 10
5.678621E-02
 20
0.111899
  0
VERTEX
  8
Layer0$C$L0
 10
4.229502E-02
 20
0.113546
  0
VERTEX
  8
Layer0$C$L0
 10
2.736776E-02
 20
0.114730
  0
VERTEX
  8
Layer0$C$L0
 10
1.214862E-02
 20
0.115441
  0
SEQEND
  8
Layer0$C$L0
  0
LINE
  8
Layer0$C$L0
 10
0.153148
 20
6.567144E-02
 11
0.153148
 21
1.067162E-02
  0
LINE
  8
Layer0$C$L0
 10
-1.785183E-02
 20
0.102177
 11
-1.785183E-02
 21
0.115441
  0
LINE
  8
Layer0$C$L0
 10
1.214790E-02
 20
0.102177
 11
1.214790E-02
 21
0.115441
  0
LINE
  8
Layer0$C$L0
 10
-1.785183E-02
 20
0.102177
 11
1.214790E-02
 21
0.102177
  0
POLYLINE
  8
Layer0$C$L0
 66
     1
  0
VERTEX
  8
Layer0$C$L0
 10
-1.785158E-02
 20
0.115441
  0
VERTEX
  8
Layer0$C$L0
 10
-3.307073E-02
 20
0.114730
  0
VERTEX
  8
Layer0$C$L0
 10
-4.799799E-02
 20
0.113546
  0
VERTEX
  8
Layer0$C$L0
 10
-6.248918E-02
 20
0.111899
  0
VERTEX
  8
Layer0$C$L0
 10
-7.640432E-02
 20
0.109805
  0
VERTEX
  8
Layer0$C$L0
 10
-8.960901E-02
 20
0.107285
  0
VERTEX
  8
Layer0$C$L0
 10
-0.101976
 20
0.104363
  0
VERTEX
  8
Layer0$C$L0
 10
-0.113385
 20
0.101068
  0
VERTEX
  8
Layer0$C$L0
 10
-0.123727
 20
9.743041E-02
  0
VERTEX
  8
Layer0$C$L0
 10
-0.132901
 20
9.348620E-02
  0
VERTEX
  8
Layer0$C$L0
 10
-0.140819
 20
8.927332E-02
  0
VERTEX
  8
Layer0$C$L0
 10
-0.147404
 20
8.483247E-02
  0
VERTEX
  8
Layer0$C$L0
 10
-0.152593
 20
8.020654E-02
  0
VERTEX
  8
Layer0$C$L0
 10
-0.156336
 20
7.544021E-02
  0
VERTEX
  8
Layer0$C$L0
 10
-0.158596
 20
7.057953E-02
  0
VERTEX
  8
Layer0$C$L0
 10
-0.159351
 20
6.567144E-02
  0
SEQEND
  8
Layer0$C$L0
  0
ENDBLK
  8
Layer0$C$L0
  0
BLOCK
  8
Layer0$C$L0
  2
REV-LINESP
 70
     0
 10
0.000000
 20
0.000000
  0
POINT
  8
Layer0$C$L0
 10
0.000000
 20
0.000000
  0
LINE
  8
Layer0$C$L0
 10
0.000000
 20
-0.200000
 11
0.000000
 21
0.000000
  0
LINE
  8
Layer0$C$L0
 10
-0.375000
 20
-0.200000
 11
-0.375000
 21
0.000000
  0
LINE
  8
Layer0$C$L0
 10
-0.750000
 20
-0.200000
 11
-0.750000
 21
0.000000
  0
LINE
  8
Layer0$C$L0
 10
-3.000000
 20
-0.200000
 11
-3.000000
 21
0.000000
  0
LINE
  8
Layer0$C$L0
 10
-3.375000
 20
-0.200000
 11
-3.375000
 21
0.000000
  0
LINE
  8
Layer0$C$L0
 10
-4.000000
 20
-0.200000
 11
-4.000000
 21
0.000000
  0
LINE
  8
Layer0$C$L0
 10
-4.375000
 20
-0.200000
 11
-4.375000
 21
0.000000
  0
LINE
  8
Layer0$C$L0
 10
-4.375000
 20
-0.200000
 11
0.000000
 21
-0.200000
  0
ENDBLK
  8
Layer0$C$L0
  0
BLOCK
  8
Layer0$C$L0
  2
BP
 70
     0
 10
0.000000
 20
0.000000
  0
INSERT
  8
Layer0$C$L0
  2
NEWTITLE
 10
7.657000
 20
-4.906250
  0
INSERT
  8
Layer0$C$L0
  2
REV-HEADINGP
 10
7.657000
 20
4.906250
  0
POINT
  8
Layer0$C$L0
 10
7.657000
 20
4.906250
  0
INSERT
  8
Layer0$C$L0
 66
     1
  2
Cadra_attr_0
 10
0.000000
 20
0.000000
  0
ATTRIB
  8
Layer0$C$L0
 10
8.032000
 20
-5.281250
 40
0.156000
  1
HP7585  08.032  -05.281  00
  2
2
 70
    11
  0
SEQEND
  8
Layer0$C$L0
  0
INSERT
  8
Layer0$C$L0
 66
     1
  2
Cadra_attr_1
 10
0.000000
 20
0.000000
  0
ATTRIB
  8
Layer0$C$L0
 10
8.032000
 20
-4.936250
 40
0.156000
  1
HP7550  08.032  -04.936  00
  2
1
 70
    11
  0
SEQEND
  8
Layer0$C$L0
  0
INSERT
  8
Layer0$C$L0
 66
     1
  2
Cadra_attr_2
 10
0.000000
 20
0.000000
  0
ATTRIB
  8
Layer0$C$L0
 10
-7.718000
 20
5.218750
 40
0.156000
  1
HP7596  -07.718  05.219  180
  2
3
 70
    11
  0
SEQEND
  8
Layer0$C$L0
  0
LINE
  8
Layer0$C$L0
 10
-7.657001
 20
4.906250
 11
7.657000
 21
4.906250
  0
LINE
  8
Layer0$C$L0
 10
-7.657001
 20
4.906250
 11
-7.657001
 21
-4.906250
  0
LINE
  8
Layer0$C$L0
 10
7.654999
 20
-4.906250
 11
-7.657001
 21
-4.906250
  0
LINE
  8
Layer0$C$L0
 10
7.657000
 20
4.906250
 11
7.657000
 21
-4.906250
  0
ENDBLK
  8
Layer0$C$L0
  0
BLOCK
  8
Layer0$C$L0
  2
NEWTITLE
 70
     0
 10
0.000000
 20
0.000000
  0
INSERT
  8
Layer55$C$L55
  2
*X0
 10
0.000000
 20
0.000000
  0
INSERT
  8
Layer55$C$L55
  2
*X1
 10
0.000000
 20
0.000000
  0
INSERT
  8
Layer55$C$L55
  2
*X2
 10
0.000000
 20
0.000000
  0
INSERT
  8
Layer55$C$L55
  2
*X3
 10
0.000000
 20
0.000000
  0
INSERT
  8
Layer55$C$L55
  2
*X4
 10
0.000000
 20
0.000000
  0
INSERT
  8
Layer55$C$L55
  2
*X5
 10
0.000000
 20
0.000000
  0
INSERT
  8
Layer55$C$L55
  2
*X6
 10
0.000000
 20
0.000000
  0
TEXT
  8
Layer0$C$L0
 10
-2.370969
 20
1.281389
 40
4.687500E-02
  1
SPECIFIED: .XXXX%%p.0005;, .XXX%%p.005;, .XX%%p.01;,
 72
     5
 11
-0.227253
 21
1.281389
  0
TEXT
  8
Layer0$C$L0
 10
-2.370969
 20
1.211076
 40
4.687500E-02
  1
.X%%p.02;  X/X%%p1/32
 72
     5
 11
-1.586628
 21
1.211076
  0
TEXT
  8
Layer0$C$L0
 10
-4.979852
 20
0.252570
 40
4.687500E-02
  1
DESCRIPTION
 72
     5
 11
-4.476761
 21
0.252570
  0
TEXT
  8
Layer0$C$L0
 10
-4.979852
 20
0.568051
 40
4.687500E-02
  1
CHECKED BY:
 72
     5
 11
-4.476761
 21
0.568051
  0
TEXT
  8
Layer0$C$L0
 10
-4.979852
 20
0.901110
 40
4.687500E-02
  1
DRAWN BY:
 72
     5
 11
-4.570511
 21
0.901110
  0
TEXT
  8
Layer0$C$L0
 10
-1.871299
 20
0.252570
 40
4.687500E-02
  1
IDENTIFICATION NO. & REVISION
 72
     5
 11
-0.524459
 21
0.252570
  0
TEXT
  8
Layer0$C$L0
 10
-2.364801
 20
1.361413
 40
4.687500E-02
  1
TOLERANCE TO BE APPLIED UNLESS OTHERWISE
 72
     5
 11
-0.502335
 21
1.361413
  0
TEXT
  8
Layer0$C$L0
 10
-2.364801
 20
1.135219
 40
4.687500E-02
  1
UNSPECIFIED ANGLES%%p1%%d, SPECIFIED ANGLES%%pO%%d30'
 72
     5
 11
-0.267960
 21
1.135219
  0
TEXT
  8
Layer0$C$L0
 10
-2.364801
 20
1.052206
 40
4.687500E-02
  1
DIMENSIONS APPLY AFTER PLATING
 72
     5
 11
-0.971085
 21
1.052206
  0
TEXT
  8
Layer0$C$L0
 10
-2.364801
 20
0.943561
 40
4.687500E-02
  1
ALL SURFACES TO BE 125  UNLESS OTHERWISE SPECIFIED
 72
     5
 11
-3.358502E-02
 21
0.943561
  0
TEXT
  8
Layer0$C$L0
 10
-2.364801
 20
0.811332
 40
4.687500E-02
  1
BREAK ALL SHARP EDGES
 72
     5
 11
-1.392960
 21
0.811332
  0
TEXT
  8
Layer0$C$L0
 10
-2.444901
 20
0.381535
 40
6.300000E-02
  1
REFDOC:
 72
     5
 11
-2.020748
 21
0.381535
  0
TEXT
  8
Layer0$C$L0
 10
-2.364801
 20
0.736318
 40
4.687500E-02
  1
THIS DRAWING AND ALL INFORMATION THERE ON IS THE
 72
     5
 11
-0.127335
 21
0.736318
  0
TEXT
  8
Layer0$C$L0
 10
-2.364801
 20
0.666005
 40
4.687500E-02
  1
PROPERTY OF GOULD INC. AND IS SUBJECT TO RETURN ON
 72
     5
 11
-3.358502E-02
 21
0.666005
  0
TEXT
  8
Layer0$C$L0
 10
-2.364801
 20
0.595693
 40
4.687500E-02
  1
DEMAND.  THIS INFORMATION IS CONFIDENTIAL AND MUST
 72
     5
 11
-3.358502E-02
 21
0.595693
  0
TEXT
  8
Layer0$C$L0
 10
-2.364801
 20
0.525380
 40
4.687500E-02
  1
NOT BE MADE PUBLIC OR COPIED UNLESS AUTHORIZED.
 72
     5
 11
-0.174210
 21
0.525380
  0
TEXT
  8
Layer0$C$L0
 10
-3.135691
 20
0.907278
 40
4.687500E-02
  1
INIT. REL.
 72
     5
 11
-2.679475
 21
0.907278
  0
TEXT
  8
Layer0$C$L0
 10
-3.006168
 20
0.418541
 40
6.300000E-02
  1
NONE
 72
     5
 11
-2.771014
 21
0.418541
  0
TEXT
  8
Layer0$C$L0
 10
-3.111019
 20
0.574219
 40
4.687500E-02
  1
SCALE:
 72
     5
 11
-2.842304
 21
0.574219
  0
TEXT
  8
Layer0$C$L0
 10
-3.653783
 20
0.574219
 40
4.687500E-02
  1
DATE:
 72
     5
 11
-3.431942
 21
0.574219
  0
TEXT
  8
Layer0$C$L0
 10
-3.519015
 20
1.160825
 40
4.687500E-02
  1
P.O. BOX 729
 72
     5
 11
-2.969049
 21
1.160825
  0
TEXT
  8
Layer0$C$L0
 10
-3.515032
 20
1.089139
 40
4.687500E-02
  1
MARBLE FALLS, TX 78654
 72
     5
 11
-2.496317
 21
1.089139
  0
TEXT
  8
Layer0$C$L0
 10
-3.659951
 20
0.901110
 40
4.687500E-02
  1
DATE:
 72
     5
 11
-3.438110
 21
0.901110
  0
TEXT
  8
Layer0$C$L0
 10
-3.522998
 20
1.232512
 40
4.687500E-02
  1
GOULD INC.
 72
     5
 11
-3.066782
 21
1.232512
  0
TEXT
  8
Layer0$C$L0
 10
-5.004523
 20
0.999400
 40
6.000000E-02
  1
CIRCUIT PROTECTION DIV.
 72
     5
 11
-3.640567
 21
0.999400
  0
POINT
  8
Layer0$C$L0
 10
-1.988487
 20
0.413035
  0
LINE
  8
Layer0$C$L0
 10
-5.041019
 20
0.650082
 11
-2.475740
 21
0.650082
  0
LINE
  8
Layer0$C$L0
 10
-2.475740
 20
0.493216
 11
-4.263256E-14
 21
0.493216
  0
LINE
  8
Layer0$C$L0
 10
-5.041019
 20
1.436883
 11
-5.684342E-14
 21
1.436883
  0
LINE
  8
Layer0$C$L0
 10
-1.902138
 20
0.000000
 11
-1.902138
 21
0.326275
  0
LINE
  8
Layer0$C$L0
 10
-5.041019
 20
0.326275
 11
-5.684342E-14
 21
0.326275
  0
LINE
  8
Layer0$C$L0
 10
-3.141859
 20
0.326275
 11
-3.141859
 21
0.973890
  0
LINE
  8
Layer0$C$L0
 10
-2.475740
 20
0.326275
 11
-2.475740
 21
1.436883
  0
LINE
  8
Layer0$C$L0
 10
-5.041019
 20
0.973890
 11
-2.475740
 21
0.973890
  0
LINE
  8
Layer0$C$L0
 10
-5.041019
 20
0.000000
 11
-5.041019
 21
1.436883
  0
LINE
  8
Layer0$C$L0
 10
-5.012015
 20
1.291330
 11
-4.849514
 21
1.291330
  0
LINE
  8
Layer0$C$L0
 10
-4.849514
 20
1.291330
 11
-4.849514
 21
1.191329
  0
LINE
  8
Layer0$C$L0
 10
-4.849514
 20
1.191329
 11
-5.012015
 21
1.191329
  0
LINE
  8
Layer0$C$L0
 10
-5.012015
 20
1.191329
 11
-5.012015
 21
1.291330
  0
LINE
  8
Layer0$C$L0
 10
-4.912014
 20
1.391329
 11
-4.774516
 21
1.241329
  0
LINE
  8
Layer0$C$L0
 10
-4.774516
 20
1.241329
 11
-4.912014
 21
1.091330
  0
LINE
  8
Layer0$C$L0
 10
-4.912014
 20
1.091330
 11
-4.799515
 21
1.091330
  0
LINE
  8
Layer0$C$L0
 10
-4.799515
 20
1.091330
 11
-4.799515
 21
1.191329
  0
LINE
  8
Layer0$C$L0
 10
-4.799515
 20
1.191329
 11
-4.699515
 21
1.191329
  0
LINE
  8
Layer0$C$L0
 10
-4.699515
 20
1.191329
 11
-4.699515
 21
1.291330
  0
LINE
  8
Layer0$C$L0
 10
-4.699515
 20
1.291330
 11
-4.799515
 21
1.291330
  0
LINE
  8
Layer0$C$L0
 10
-4.799515
 20
1.291330
 11
-4.799515
 21
1.391329
  0
LINE
  8
Layer0$C$L0
 10
-4.799515
 20
1.391329
 11
-4.912014
 21
1.391329
  0
LINE
  8
Layer0$C$L0
 10
-3.791704
 20
1.100873
 11
-3.791704
 21
1.090874
  0
LINE
  8
Layer0$C$L0
 10
-3.969703
 20
1.290874
 11
-3.929704
 21
1.290874
  0
LINE
  8
Layer0$C$L0
 10
-4.049703
 20
1.290874
 11
-4.009704
 21
1.290874
  0
LINE
  8
Layer0$C$L0
 10
-4.187704
 20
1.290874
 11
-4.147705
 21
1.290874
  0
LINE
  8
Layer0$C$L0
 10
-3.573703
 20
1.140873
 11
-3.573703
 21
1.240874
  0
LINE
  8
Layer0$C$L0
 10
-3.751705
 20
1.090874
 11
-3.751705
 21
1.290874
  0
LINE
  8
Layer0$C$L0
 10
-3.613704
 20
1.130874
 11
-3.613704
 21
1.250874
  0
LINE
  8
Layer0$C$L0
 10
-3.711704
 20
1.100873
 11
-3.711704
 21
1.280874
  0
LINE
  8
Layer0$C$L0
 10
-3.751705
 20
1.090874
 11
-3.623704
 21
1.090874
  0
LINE
  8
Layer0$C$L0
 10
-3.751705
 20
1.290874
 11
-3.623704
 21
1.290874
  0
LINE
  8
Layer0$C$L0
 10
-3.711704
 20
1.100873
 11
-3.643703
 21
1.100873
  0
LINE
  8
Layer0$C$L0
 10
-3.711704
 20
1.280874
 11
-3.643703
 21
1.280874
  0
ARC
  8
Layer0$C$L0
 10
-3.623704
 20
1.140873
 40
5.000000E-02
 50
270.000001
 51
360.000010
  0
ARC
  8
Layer0$C$L0
 10
-3.623704
 20
1.240874
 40
5.000000E-02
 50
0.000000
 51
90.000003
  0
ARC
  8
Layer0$C$L0
 10
-3.643703
 20
1.130874
 40
3.000000E-02
 50
270.000001
 51
360.000010
  0
ARC
  8
Layer0$C$L0
 10
-3.643703
 20
1.250874
 40
3.000000E-02
 50
1.001791E-05
 51
89.999989
  0
LINE
  8
Layer0$C$L0
 10
-3.969703
 20
1.090874
 11
-3.969703
 21
1.290874
  0
LINE
  8
Layer0$C$L0
 10
-3.929704
 20
1.100873
 11
-3.929704
 21
1.290874
  0
LINE
  8
Layer0$C$L0
 10
-3.969703
 20
1.090874
 11
-3.791704
 21
1.090874
  0
LINE
  8
Layer0$C$L0
 10
-3.929704
 20
1.100873
 11
-3.791704
 21
1.100873
  0
LINE
  8
Layer0$C$L0
 10
-4.227705
 20
1.140873
 11
-4.227705
 21
1.240874
  0
LINE
  8
Layer0$C$L0
 10
-4.405706
 20
1.140873
 11
-4.405706
 21
1.240874
  0
LINE
  8
Layer0$C$L0
 10
-4.267704
 20
1.130874
 11
-4.267704
 21
1.250874
  0
LINE
  8
Layer0$C$L0
 10
-4.365705
 20
1.130874
 11
-4.365705
 21
1.250874
  0
LINE
  8
Layer0$C$L0
 10
-4.355705
 20
1.090874
 11
-4.277704
 21
1.090874
  0
LINE
  8
Layer0$C$L0
 10
-4.355705
 20
1.290874
 11
-4.277704
 21
1.290874
  0
LINE
  8
Layer0$C$L0
 10
-4.335706
 20
1.100873
 11
-4.297704
 21
1.100873
  0
LINE
  8
Layer0$C$L0
 10
-4.335706
 20
1.280874
 11
-4.297704
 21
1.280874
  0
ARC
  8
Layer0$C$L0
 10
-4.355705
 20
1.140873
 40
5.000000E-02
 50
180.000005
 51
270.000001
  0
ARC
  8
Layer0$C$L0
 10
-4.277704
 20
1.140873
 40
5.000000E-02
 50
270.000001
 51
360.000010
  0
ARC
  8
Layer0$C$L0
 10
-4.277704
 20
1.240874
 40
5.000000E-02
 50
0.000000
 51
90.000003
  0
ARC
  8
Layer0$C$L0
 10
-4.355705
 20
1.240874
 40
5.000000E-02
 50
90.000003
 51
180.000005
  0
ARC
  8
Layer0$C$L0
 10
-4.335706
 20
1.130874
 40
3.000000E-02
 50
180.000005
 51
270.000001
  0
ARC
  8
Layer0$C$L0
 10
-4.297704
 20
1.130874
 40
3.000000E-02
 50
270.000001
 51
360.000010
  0
ARC
  8
Layer0$C$L0
 10
-4.297704
 20
1.250874
 40
3.000000E-02
 50
1.001791E-05
 51
89.999989
  0
ARC
  8
Layer0$C$L0
 10
-4.335706
 20
1.250874
 40
3.000000E-02
 50
90.000003
 51
180.000005
  0
ARC
  8
Layer0$C$L0
 10
-4.505706
 20
1.157874
 40
2.000000E-02
 50
0.000000
 51
90.000003
  0
LINE
  8
Layer0$C$L0
 10
-4.445705
 20
1.140873
 11
-4.445705
 21
1.190874
  0
LINE
  8
Layer0$C$L0
 10
-4.485706
 20
1.130874
 11
-4.485706
 21
1.157874
  0
LINE
  8
Layer0$C$L0
 10
-4.485706
 20
1.215874
 11
-4.445705
 21
1.215874
  0
LINE
  8
Layer0$C$L0
 10
-4.445705
 20
1.215874
 11
-4.445705
 21
1.240874
  0
LINE
  8
Layer0$C$L0
 10
-4.623706
 20
1.140873
 11
-4.623706
 21
1.240874
  0
LINE
  8
Layer0$C$L0
 10
-4.485706
 20
1.215874
 11
-4.485706
 21
1.250874
  0
LINE
  8
Layer0$C$L0
 10
-4.583705
 20
1.130874
 11
-4.583705
 21
1.250874
  0
LINE
  8
Layer0$C$L0
 10
-4.573705
 20
1.090874
 11
-4.495706
 21
1.090874
  0
LINE
  8
Layer0$C$L0
 10
-4.573705
 20
1.290874
 11
-4.495706
 21
1.290874
  0
LINE
  8
Layer0$C$L0
 10
-4.553707
 20
1.100873
 11
-4.515705
 21
1.100873
  0
LINE
  8
Layer0$C$L0
 10
-4.553707
 20
1.280874
 11
-4.515705
 21
1.280874
  0
ARC
  8
Layer0$C$L0
 10
-4.573705
 20
1.140873
 40
5.000000E-02
 50
180.000005
 51
270.000001
  0
ARC
  8
Layer0$C$L0
 10
-4.495706
 20
1.140873
 40
5.000000E-02
 50
270.000001
 51
360.000010
  0
ARC
  8
Layer0$C$L0
 10
-4.495706
 20
1.240874
 40
5.000000E-02
 50
0.000000
 51
90.000003
  0
ARC
  8
Layer0$C$L0
 10
-4.573705
 20
1.240874
 40
5.000000E-02
 50
90.000003
 51
180.000005
  0
ARC
  8
Layer0$C$L0
 10
-4.553707
 20
1.130874
 40
3.000000E-02
 50
180.000005
 51
270.000001
  0
ARC
  8
Layer0$C$L0
 10
-4.515705
 20
1.130874
 40
3.000000E-02
 50
270.000001
 51
360.000010
  0
ARC
  8
Layer0$C$L0
 10
-4.515705
 20
1.250874
 40
3.000000E-02
 50
1.001791E-05
 51
89.999989
  0
ARC
  8
Layer0$C$L0
 10
-4.553707
 20
1.250874
 40
3.000000E-02
 50
90.000003
 51
180.000005
  0
ARC
  8
Layer0$C$L0
 10
-4.079704
 20
1.130874
 40
3.000000E-02
 50
270.000001
 51
360.000010
  0
ARC
  8
Layer0$C$L0
 10
-4.117704
 20
1.130874
 40
3.000000E-02
 50
180.000005
 51
270.000001
  0
ARC
  8
Layer0$C$L0
 10
-4.059703
 20
1.140873
 40
5.000000E-02
 50
270.000001
 51
360.000010
  0
ARC
  8
Layer0$C$L0
 10
-4.137704
 20
1.140873
 40
5.000000E-02
 50
180.000005
 51
270.000001
  0
LINE
  8
Layer0$C$L0
 10
-4.117704
 20
1.100873
 11
-4.079704
 21
1.100873
  0
LINE
  8
Layer0$C$L0
 10
-4.137704
 20
1.090874
 11
-4.059703
 21
1.090874
  0
LINE
  8
Layer0$C$L0
 10
-4.147705
 20
1.130874
 11
-4.147705
 21
1.290874
  0
LINE
  8
Layer0$C$L0
 10
-4.049703
 20
1.130874
 11
-4.049703
 21
1.290874
  0
LINE
  8
Layer0$C$L0
 10
-4.187704
 20
1.140873
 11
-4.187704
 21
1.290874
  0
LINE
  8
Layer0$C$L0
 10
-4.009704
 20
1.140873
 11
-4.009704
 21
1.290874
  0
LINE
  8
Layer0$C$L0
 10
-4.530706
 20
1.177874
 11
-4.530706
 21
1.190874
  0
LINE
  8
Layer0$C$L0
 10
-4.530706
 20
1.177874
 11
-4.505706
 21
1.177874
  0
LINE
  8
Layer0$C$L0
 10
-4.530706
 20
1.190874
 11
-4.445705
 21
1.190874
  0
LINE
  8
Layer0$C$L0
 10
-1.368988
 20
0.887476
 11
-1.396059
 21
0.934364
  0
LINE
  8
Layer0$C$L0
 10
-1.368988
 20
0.887476
 11
-1.291639
 21
1.021448
  0
ENDBLK
  8
Layer0$C$L0
  0
BLOCK
  8
Layer0$C$L0
  2
REV-HEADINGP
 70
     0
 10
0.000000
 20
0.000000
  0
TEXT
  8
Layer0$C$L0
 10
-0.271321
 20
-0.141521
 40
6.250000E-02
  1
CK
 72
     5
 11
-0.163033
 21
-0.141521
  0
TEXT
  8
Layer0$C$L0
 10
-0.641315
 20
-0.141704
 40
6.250000E-02
  1
BY
 72
     5
 11
-0.533027
 21
-0.141704
  0
TEXT
  8
Layer0$C$L0
 10
-2.220139
 20
-0.141521
 40
6.250000E-02
  1
DESCRIPTION
 72
     5
 11
-1.549351
 21
-0.141521
  0
TEXT
  8
Layer0$C$L0
 10
-3.281666
 20
-0.141521
 40
6.250000E-02
  1
ECO
 72
     5
 11
-3.110879
 21
-0.141521
  0
TEXT
  8
Layer0$C$L0
 10
-3.814410
 20
-0.141521
 40
6.250000E-02
  1
DATE
 72
     5
 11
-3.581123
 21
-0.141521
  0
TEXT
  8
Layer0$C$L0
 10
-4.289352
 20
-0.141521
 40
6.250000E-02
  1
REV
 72
     5
 11
-4.118564
 21
-0.141521
  0
LINE
  8
Layer0$C$L0
 10
0.000000
 20
-0.200000
 11
0.000000
 21
0.000000
  0
LINE
  8
Layer0$C$L0
 10
-0.375000
 20
-0.200000
 11
-0.375000
 21
0.000000
  0
LINE
  8
Layer0$C$L0
 10
-0.750000
 20
-0.200000
 11
-0.750000
 21
0.000000
  0
LINE
  8
Layer0$C$L0
 10
-3.000000
 20
-0.200000
 11
-3.000000
 21
0.000000
  0
LINE
  8
Layer0$C$L0
 10
-3.375000
 20
-0.200000
 11
-3.375000
 21
0.000000
  0
LINE
  8
Layer0$C$L0
 10
-4.000000
 20
-0.200000
 11
-4.000000
 21
0.000000
  0
LINE
  8
Layer0$C$L0
 10
-4.375000
 20
-0.200000
 11
-4.375000
 21
0.000000
  0
LINE
  8
Layer0$C$L0
 10
-4.375000
 20
-0.200000
 11
0.000000
 21
-0.200000
  0
ENDBLK
  8
Layer0$C$L0
  0
BLOCK
  8
Layer0$C$L0
  2
Cadra_attr_0
 70
     2
 10
0.000000
 20
0.000000
  0
POINT
  8
Layer0$C$L0
 10
8.032000
 20
-5.281250
  0
ATTDEF
  8
Layer0$C$L0
 10
8.032000
 20
-5.281250
 40
0.156000
  1
HP7585  08.032  -05.281  00
  3

  2
2
 70
    11
  0
ENDBLK
  8
Layer0$C$L0
  0
BLOCK
  8
Layer0$C$L0
  2
Cadra_attr_1
 70
     2
 10
0.000000
 20
0.000000
  0
POINT
  8
Layer0$C$L0
 10
8.032000
 20
-4.936250
  0
ATTDEF
  8
Layer0$C$L0
 10
8.032000
 20
-4.936250
 40
0.156000
  1
HP7550  08.032  -04.936  00
  3

  2
1
 70
    11
  0
ENDBLK
  8
Layer0$C$L0
  0
BLOCK
  8
Layer0$C$L0
  2
Cadra_attr_2
 70
     2
 10
0.000000
 20
0.000000
  0
POINT
  8
Layer0$C$L0
 10
-7.718000
 20
5.218750
  0
ATTDEF
  8
Layer0$C$L0
 10
-7.718000
 20
5.218750
 40
0.156000
  1
HP7596  -07.718  05.219  180
  3

  2
3
 70
    11
  0
ENDBLK
  8
Layer0$C$L0
  0
ENDSEC
  0
SECTION
  2
ENTITIES
  0
TEXT
  8
Layer0$C$L0
 10
11.518480
 20
-10.286697
 40
0.125000
  1
92-055
 41
0.929390
 72
     5
 11
12.099349
 21
-10.286697
  0
TEXT
  8
Layer0$C$L0
 10
14.316901
 20
-1.563884
 40
0.125000
  1
GO
 72
     5
 11
14.533477
 21
-1.563884
  0
TEXT
  8
Layer0$C$L0
 10
13.932385
 20
-1.549643
 40
0.125000
  1
BM
 72
     5
 11
14.148961
 21
-1.549643
  0
TEXT
  8
Layer0$C$L0
 10
7.346852E-02
 20
-9.110118
 40
0.125000
  1
(1)2/0-#14 X (4)#4-#14 2 POLE 600V
 72
     5
 11
4.290044
 21
-9.110118
  0
TEXT
  8
Layer0$C$L0
 10
7.150691
 20
-5.282253
 40
0.125000
  1
#8-#14  50
 72
     5
 11
8.367266
 21
-5.282253
  0
TEXT
  8
Layer0$C$L0
 10
7.126469
 20
-4.482929
 40
0.125000
  1
#10-#14 35
 72
     5
 11
8.343044
 21
-4.482929
  0
TEXT
  8
Layer0$C$L0
 10
8.569916
 20
-4.061536
 40
0.125000
  1
#4-#14
 72
     5
 11
9.286491
 21
-4.061536
  0
TEXT
  8
Layer0$C$L0
 10
6.145481
 20
-5.097814
 40
0.125000
  1
2/0-#14
 72
     5
 11
6.987056
 21
-5.097814
  0
TEXT
  8
Layer0$C$L0
 10
6.172369
 20
-4.048917
 40
0.125000
  1
2/0-#14
 72
     5
 11
7.013944
 21
-4.048917
  0
TEXT
  8
Layer0$C$L0
 10
11.826509
 20
-2.945935
 40
0.125000
  1
UL
 72
     5
 11
12.043084
 21
-2.945935
  0
TEXT
  8
Layer0$C$L0
 10
1.724880
 20
-10.676638
 40
0.125000
  1
ALLOY-TIN PLATED.
 72
     5
 11
3.816455
 21
-10.676638
  0
TEXT
  8
Layer0$C$L0
 10
10.689108
 20
-1.562409
 40
0.125000
  1
5/92
 72
     5
 11
11.155683
 21
-1.562409
  0
TEXT
  8
Layer0$C$L0
 10
12.852428
 20
-10.970357
 40
0.125000
  1
05B0291
 72
     5
 11
13.694004
 21
-10.970357
  0
CIRCLE
  8
Layer0$C$L0
 10
2.063229
 20
-3.266950
 40
0.150000
  0
CIRCLE
  8
Layer0$C$L0
 10
1.248229
 20
-3.266950
 40
0.150000
  0
INSERT
  8
Layer0$C$L0
  2
SCREW-SIDE
 10
6.961139
 20
-6.409902
  0
INSERT
  8
Layer0$C$L0
  2
SCREW-SIDE
 10
6.142997
 20
-6.409902
  0
INSERT
  8
Layer0$C$L0
  2
SCREW-SIDE
 10
2.058917
 20
-6.409902
  0
INSERT
  8
Layer0$C$L0
  2
SCREW-SIDE
 10
1.244088
 20
-6.409902
  0
TEXT
  8
Layer0$C$L0
 10
12.035975
 20
-9.469345
 40
0.125000
  1
P/N 63132 (CU-AL)
 72
     5
 11
14.127551
 21
-9.469345
  0
TEXT
  8
Layer0$C$L0
 10
12.027957
 20
-9.209442
 40
0.125000
  1
P/N 62132 (CU ONLY)
 72
     5
 11
14.369532
 21
-9.209442
  0
TEXT
  8
Layer0$C$L0
 10
-9.755639E-02
 20
-10.919909
 40
0.125000
  1
NOTES: UNLESS OTHERWISE SPECIFIED
 72
     5
 11
3.994019
 21
-10.919909
  0
TEXT
  8
Layer0$C$L0
 10
0.160474
 20
-10.448496
 40
0.125000
  1
CONNECTOR-ALUMINUM OR COPPER
 72
     5
 11
3.627049
 21
-10.448496
  0
TEXT
  8
Layer0$C$L0
 10
0.168622
 20
-10.187761
 40
0.125000
  1
BASE-THERMOPLASTIC-125%%dC RTI
 72
     5
 11
3.635197
 21
-10.187761
  0
TEXT
  8
Layer0$C$L0
 10
-0.287664
 20
-9.902583
 40
0.125000
  1
1. MATL COMPOSITION AND RATING:
 72
     5
 11
3.553912
 21
-9.902583
  0
TEXT
  8
Layer0$C$L0
 10
0.186733
 20
-9.673088
 40
0.125000
  1
P/N 63132 USES HEX SET SCREW.
 72
     5
 11
3.778308
 21
-9.673088
  0
TEXT
  8
Layer0$C$L0
 10
-0.303973
 20
-9.436001
 40
0.125000
  1
2  P/N 62132 USES SLOTTED SET SCREW
 72
     5
 11
4.037602
 21
-9.436001
  0
POLYLINE
  8
Layer0$C$L0
 66
     1
 70
     1
  0
VERTEX
  8
Layer0$C$L0
 10
-0.366473
 20
-9.248501
  0
VERTEX
  8
Layer0$C$L0
 10
-0.149898
 20
-9.248501
  0
VERTEX
  8
Layer0$C$L0
 10
-0.149898
 20
-9.498501
  0
VERTEX
  8
Layer0$C$L0
 10
-0.366473
 20
-9.498501
  0
SEQEND
  8
Layer0$C$L0
  0
TEXT
  8
Layer0$C$L0
 10
9.975937
 20
-10.622150
 40
0.125000
  1
GO
 72
     5
 11
10.192512
 21
-10.622150
  0
TEXT
  8
Layer0$C$L0
 10
9.718567
 20
-10.970357
 40
0.125000
  1
PDB
 72
     5
 11
10.060142
 21
-10.970357
  0
TEXT
  8
Layer0$C$L0
 10
10.831315
 20
-10.304222
 40
0.125000
  1
4/92
 72
     5
 11
11.297890
 21
-10.304222
  0
TEXT
  8
Layer0$C$L0
 10
9.975937
 20
-10.304222
 40
0.125000
  1
KDS
 72
     5
 11
10.317512
 21
-10.304222
  0
TEXT
  8
Layer0$C$L0
 10
-0.268708
 20
-9.093823
 40
0.125000
  1
3.
 72
     5
 11
-5.213288E-02
 21
-9.093823
  0
TEXT
  8
Layer0$C$L0
 10
11.957675
 20
-3.363722
 40
0.125000
  1
LUIDE NO.
 72
     5
 11
13.049250
 21
-3.363722
  0
TEXT
  8
Layer0$C$L0
 10
3.324496
 20
-2.028202
 40
0.125000
  1
4 PLCS
 72
     5
 11
4.041072
 21
-2.028202
  0
TEXT
  8
Layer0$C$L0
 10
3.271753
 20
-1.759212
 40
0.125000
  1
TYP
 72
     5
 11
3.613328
 21
-1.759212
  0
TEXT
  8
Layer0$C$L0
 10
3.878299
 20
-1.500771
 40
0.125000
  1
%%c X .125 DP
 72
     5
 11
5.252375
 21
-1.500771
  0
DIMENSION
  8
Layer0$C$L0
  2
*D0
 70
     3
 10
2.141194
 20
-2.104188
 11
2.976391
 21
-1.416382
 15
1.985263
 25
-2.232600
  3
DIM0
  0
POLYLINE
  8
Layer0$C$L0
 66
     1
  0
VERTEX
  8
Layer0$C$L0
 10
2.255615
 20
-2.793713
  0
VERTEX
  8
Layer0$C$L0
 10
2.936857
 20
-3.050727
  0
VERTEX
  8
Layer0$C$L0
 10
3.136857
 20
-3.050727
  0
SEQEND
  8
Layer0$C$L0
  0
SOLID
  8
Layer0$C$L0
 62
     0
 10
2.388026
 20
-2.876196
 11
2.409511
 21
-2.819246
 12
2.255615
 22
-2.793713
 13
2.255615
 23
-2.793713
  0
POLYLINE
  8
Layer0$C$L0
 66
     1
 70
     1
  0
VERTEX
  8
Layer0$C$L0
 10
3.136857
 20
-2.925727
  0
VERTEX
  8
Layer0$C$L0
 10
3.353432
 20
-2.925727
  0
VERTEX
  8
Layer0$C$L0
 10
3.353432
 20
-3.175727
  0
VERTEX
  8
Layer0$C$L0
 10
3.136857
 20
-3.175727
  0
SEQEND
  8
Layer0$C$L0
  0
TEXT
  8
Layer0$C$L0
 10
3.199357
 20
-3.113227
 40
0.125000
  1
2
 72
     5
 11
3.290932
 21
-3.113227
  0
DIMENSION
  8
Layer0$C$L0
  2
*D1
 70
     1
 10
-0.271288
 20
-1.856395
 11
-0.271288
 21
-2.978658
 13
0.770325
 23
-4.731395
 14
0.770325
 24
-1.856395
 50
90.000003
  3
DIM0
  0
DIMENSION
  8
Layer0$C$L0
  2
*D2
 10
0.231926
 20
-2.168394
 11
0.231926
 21
-3.318668
 13
1.063597
 23
-4.418395
 14
1.051871
 24
-2.168394
 50
-89.999996
  3
DIM0
  0
DIMENSION
  8
Layer0$C$L0
  2
*D3
 10
0.247426
 20
-4.418395
 11
0.247426
 21
-5.236324
 13
0.770325
 23
-4.731395
 14
1.063597
 24
-4.418395
 50
90.000004
  3
DIM0
  0
DIMENSION
  8
Layer0$C$L0
  2
*D4
 10
1.248228
 20
-5.236324
 11
1.716269
 21
-5.236324
 13
0.770325
 23
-4.755235
 14
1.248228
 24
-4.654768
  3
DIM0
  0
DIMENSION
  8
Layer0$C$L0
  2
*D5
 70
     1
 10
2.063229
 20
-5.739539
 11
0.824050
 21
-5.739539
 13
1.248228
 23
-4.654768
 14
2.063229
 24
-4.654768
  3
DIM0
  0
DIMENSION
  8
Layer0$C$L0
  2
*D6
 10
0.254211
 20
-8.055640
 11
0.254211
 21
-7.071637
 13
0.838434
 23
-6.047112
 14
0.838434
 24
-8.055640
 50
-90.000004
  3
DIM0
  0
DIMENSION
  8
Layer0$C$L0
  2
*D7
 70
     1
 10
2.538119
 20
-8.554821
 11
1.591966
 21
-8.554821
 13
0.769900
 23
-8.055640
 14
2.538119
 24
-8.055640
 50
180.000000
  3
DIM0
  0
DIMENSION
  8
Layer0$C$L0
  2
*D8
 10
2.981107
 20
-7.170641
 11
2.981107
 21
-7.534791
 13
2.565701
 23
-8.055640
 14
2.285029
 24
-7.170641
 50
90.000000
  3
DIM0
  0
DIMENSION
  8
Layer0$C$L0
  2
*D9
 10
3.468821
 20
-6.825641
 11
3.468821
 21
-7.412387
 13
2.565701
 23
-8.055640
 14
2.278838
 24
-6.825641
 50
90.000000
  3
DIM0
  0
DIMENSION
  8
Layer0$C$L0
  2
*D10
  1
<>1.94
 10
3.972036
 20
-8.055640
 11
3.972036
 21
-7.072378
 13
2.558968
 23
-6.117640
 14
2.399900
 24
-8.055640
 50
90.000000
  3
DIM1
  0
TEXT
  8
Layer0$C$L0
 10
13.133132
 20
-3.363722
 40
0.125000
  1
REPORT NO.
 72
     5
 11
14.349707
 21
-3.363722
  0
TEXT
  8
Layer0$C$L0
 10
9.099311
 20
-2.365874
 40
0.156000
  1
TABLE I
 72
     5
 11
10.149597
 21
-2.365874
  0
DIMENSION
  8
Layer0$C$L0
  2
*D11
 10
7.945559
 20
-7.057641
 11
7.945558
 21
-7.529394
 13
7.502571
 23
-8.055640
 14
7.071086
 24
-7.057641
 50
90.000000
  3
DIM0
  0
TEXT
  8
Layer0$C$L0
 10
13.200966
 20
-4.055226
 40
0.125000
  1
LR69363
 72
     5
 11
14.042541
 21
-4.055226
  0
TEXT
  8
Layer0$C$L0
 10
13.214170
 20
-5.067885
 40
0.125000
  1
LR69363
 72
     5
 11
14.055746
 21
-5.067885
  0
TEXT
  8
Layer0$C$L0
 10
13.404392
 20
-2.963292
 40
0.125000
  1
CSA
 72
     5
 11
13.745968
 21
-2.963292
  0
TEXT
  8
Layer0$C$L0
 10
12.132044
 20
-5.059015
 40
0.125000
  1
XCFR2
 72
     5
 11
12.723619
 21
-5.059015
  0
TEXT
  8
Layer0$C$L0
 10
12.045499
 20
-4.056481
 40
0.125000
  1
XCFR2
 72
     5
 11
12.637074
 21
-4.056481
  0
TEXT
  8
Layer0$C$L0
 10
10.925032
 20
-5.077464
 40
0.125000
  1
E73571
 72
     5
 11
11.641607
 21
-5.077464
  0
TEXT
  8
Layer0$C$L0
 10
10.975294
 20
-4.056481
 40
0.125000
  1
E73571
 72
     5
 11
11.691869
 21
-4.056481
  0
TEXT
  8
Layer0$C$L0
 10
10.898472
 20
-3.363722
 40
0.125000
  1
FILE NO.
 72
     5
 11
11.865047
 21
-3.363722
  0
TEXT
  8
Layer0$C$L0
 10
9.532059
 20
-5.361564
 40
0.125000
  1
#10-#14 20
 72
     5
 11
10.748634
 21
-5.361564
  0
TEXT
  8
Layer0$C$L0
 10
9.523523
 20
-5.045692
 40
0.125000
  1
#8      25
 72
     5
 11
10.740099
 21
-5.045692
  0
TEXT
  8
Layer0$C$L0
 10
9.497911
 20
-4.772507
 40
0.125000
  1
#4-#6   35
 72
     5
 11
10.714487
 21
-4.772507
  0
TEXT
  8
Layer0$C$L0
 10
8.576225
 20
-5.039483
 40
0.125000
  1
#4-#14
 72
     5
 11
9.292801
 21
-5.039483
  0
TEXT
  8
Layer0$C$L0
 10
9.509222
 20
-4.455078
 40
0.125000
  1
#10-#14 20
 72
     5
 11
10.725797
 21
-4.455078
  0
TEXT
  8
Layer0$C$L0
 10
9.522873
 20
-4.108353
 40
0.125000
  1
#8      25
 72
     5
 11
10.739448
 21
-4.108353
  0
TEXT
  8
Layer0$C$L0
 10
9.514683
 20
-3.687915
 40
0.125000
  1
#4-#6   35
 72
     5
 11
10.731258
 21
-3.687915
  0
TEXT
  8
Layer0$C$L0
 10
9.748849
 20
-3.363722
 40
0.125000
  1
TORQUE
 72
     5
 11
10.465424
 21
-3.363722
  0
TEXT
  8
Layer0$C$L0
 10
9.060928
 20
-3.057369
 40
0.125000
  1
SECONDARY
 72
     5
 11
10.152504
 21
-3.057369
  0
TEXT
  8
Layer0$C$L0
 10
8.612144
 20
-3.363722
 40
0.125000
  1
RANGE
 72
     5
 11
9.203719
 21
-3.363722
  0
TEXT
  8
Layer0$C$L0
 10
7.162801
 20
-4.846258
 40
0.125000
  1
2/0-#6 120
 72
     5
 11
8.379377
 21
-4.846258
  0
TEXT
  8
Layer0$C$L0
 10
7.148823
 20
-4.177430
 40
0.125000
  1
#8      40
 72
     5
 11
8.365399
 21
-4.177430
  0
TEXT
  8
Layer0$C$L0
 10
7.156823
 20
-3.897415
 40
0.125000
  1
#4-#6   45
 72
     5
 11
8.373398
 21
-3.897415
  0
TEXT
  8
Layer0$C$L0
 10
7.140822
 20
-3.625400
 40
0.125000
  1
2/0-#3  50
 72
     5
 11
8.357397
 21
-3.625400
  0
TEXT
  8
Layer0$C$L0
 10
7.364834
 20
-3.353384
 40
0.125000
  1
TORQUE
 72
     5
 11
8.081410
 21
-3.353384
  0
TEXT
  8
Layer0$C$L0
 10
6.276774
 20
-3.353384
 40
0.125000
  1
RANGE
 72
     5
 11
6.868349
 21
-3.353384
  0
TEXT
  8
Layer0$C$L0
 10
6.673989
 20
-3.081490
 40
0.125000
  1
PRIMARY
 72
     5
 11
7.515564
 21
-3.081490
  0
TEXT
  8
Layer0$C$L0
 10
6.925419
 20
-2.789900
 40
0.125000
  1
WIRE RANGE & TORQUE (IN-LBS)
 72
     5
 11
10.391995
 21
-2.789900
  0
TEXT
  8
Layer0$C$L0
 10
5.372725
 20
-5.093464
 40
0.125000
  1
63132
 72
     5
 11
5.964300
 21
-5.093464
  0
TEXT
  8
Layer0$C$L0
 10
5.364774
 20
-4.042608
 40
0.125000
  1
62132
 72
     5
 11
5.956349
 21
-4.042608
  0
TEXT
  8
Layer0$C$L0
 10
5.421617
 20
-3.131214
 40
0.125000
  1
P/N
 72
     5
 11
5.763192
 21
-3.131214
  0
TEXT
  8
Layer0$C$L0
 10
11.684270
 20
-1.550688
 40
0.125000
  1
RELEASED
 72
     5
 11
12.650845
 21
-1.550688
  0
TEXT
  8
Layer0$C$L0
 10
10.299151
 20
-1.562230
 40
0.125000
  1
00
 72
     5
 11
10.515727
 21
-1.562230
  0
INSERT
  8
Layer0$C$L0
  2
REV-LINESP
 10
14.619416
 20
-1.783081
  0
INSERT
  8
Layer0$C$L0
  2
REV-LINESP
 10
14.619416
 20
-1.589130
  0
INSERT
  8
Layer0$C$L0
  2
REV-LINESP
 10
14.619416
 20
-1.395179
  0
LINE
  8
Layer0$C$L0
 10
7.305462
 20
-6.167641
 11
7.425932
 21
-6.167641
  0
LINE
  8
Layer0$C$L0
 10
0.898700
 20
-6.167641
 11
0.778230
 21
-6.167641
  0
ARC
  8
Layer0$C$L0
 10
7.365728
 20
-6.206200
 40
0.126546
 50
17.740254
 51
162.259668
  0
ARC
  8
Layer0$C$L0
 10
0.838434
 20
-6.167641
 40
0.120528
 50
0.000000
 51
180.000005
  0
INSERT
  8
Layer0$C$L0
  2
BP
 10
6.963451
 20
-6.110215
  0
CIRCLE
  8
Layer0$C$L0
 10
2.063229
 20
-2.766950
 40
0.187500
  0
CIRCLE
  8
Layer0$C$L0
 10
2.063229
 20
-2.766950
 40
0.163125
  0
LINE
  8
Layer0$C$L0
 10
2.156979
 20
-2.821076
 11
2.156979
 21
-2.712823
  0
LINE
  8
Layer0$C$L0
 10
2.063229
 20
-2.875203
 11
2.156979
 21
-2.821076
  0
LINE
  8
Layer0$C$L0
 10
1.969479
 20
-2.821076
 11
2.063229
 21
-2.875203
  0
LINE
  8
Layer0$C$L0
 10
1.969479
 20
-2.712823
 11
1.969479
 21
-2.821076
  0
LINE
  8
Layer0$C$L0
 10
2.063229
 20
-2.658697
 11
1.969479
 21
-2.712823
  0
LINE
  8
Layer0$C$L0
 10
2.156979
 20
-2.712823
 11
2.063229
 21
-2.658697
  0
CIRCLE
  8
Layer0$C$L0
 10
1.248229
 20
-2.766950
 40
0.187500
  0
CIRCLE
  8
Layer0$C$L0
 10
1.248229
 20
-2.766950
 40
0.163125
  0
LINE
  8
Layer0$C$L0
 10
1.341979
 20
-2.821076
 11
1.341979
 21
-2.712823
  0
LINE
  8
Layer0$C$L0
 10
1.248229
 20
-2.875203
 11
1.341979
 21
-2.821076
  0
LINE
  8
Layer0$C$L0
 10
1.154479
 20
-2.821076
 11
1.248229
 21
-2.875203
  0
LINE
  8
Layer0$C$L0
 10
1.154478
 20
-2.712823
 11
1.154478
 21
-2.821076
  0
LINE
  8
Layer0$C$L0
 10
1.248229
 20
-2.658697
 11
1.154479
 21
-2.712823
  0
LINE
  8
Layer0$C$L0
 10
1.341979
 20
-2.712823
 11
1.248229
 21
-2.658697
  0
LINE
  8
Layer0$C$L0
 10
1.878597
 20
-4.418395
 11
2.253841
 21
-4.418395
  0
LINE
  8
Layer0$C$L0
 10
1.866871
 20
-2.168394
 11
2.224525
 21
-2.168394
  0
LINE
  8
Layer0$C$L0
 10
2.063229
 20
-1.981157
 11
2.063229
 21
-2.350537
  0
LINE
  8
Layer0$C$L0
 10
2.063229
 20
-4.226756
 11
2.063229
 21
-4.654768
  0
LINE
  8
Layer0$C$L0
 10
2.400325
 20
-4.731395
 11
2.400325
 21
-4.665393
  0
LINE
  8
Layer0$C$L0
 10
2.408875
 20
-4.731395
 11
2.408875
 21
-4.643818
  0
LINE
  8
Layer0$C$L0
 10
2.528875
 20
-4.731395
 11
2.528875
 21
-4.643818
  0
ARC
  8
Layer0$C$L0
 10
2.468875
 20
-4.539895
 40
0.143000
 50
10.872696
 51
61.445304
  0
ARC
  8
Layer0$C$L0
 10
2.468875
 20
-4.539895
 40
0.120000
 50
299.999967
 51
420.000025
  0
ARC
  8
Layer0$C$L0
 10
2.468875
 20
-4.539895
 40
0.120000
 50
119.999990
 51
240.000034
  0
ARC
  8
Layer0$C$L0
 10
2.468875
 20
-4.539895
 40
0.143000
 50
169.334938
 51
241.355635
  0
ARC
  8
Layer0$C$L0
 10
2.468875
 20
-2.047894
 40
0.143000
 50
118.644361
 51
241.355663
  0
ARC
  8
Layer0$C$L0
 10
2.468875
 20
-2.047894
 40
0.120000
 50
119.999990
 51
240.000034
  0
LINE
  8
Layer0$C$L0
 10
2.400325
 20
-4.414397
 11
2.400325
 21
-2.173393
  0
LINE
  8
Layer0$C$L0
 10
2.408875
 20
-4.435972
 11
2.408875
 21
-2.151817
  0
ARC
  8
Layer0$C$L0
 10
2.468875
 20
-2.047894
 40
0.143000
 50
298.554699
 51
420.843663
  0
ARC
  8
Layer0$C$L0
 10
2.468875
 20
-2.047894
 40
0.120000
 50
299.999967
 51
420.000025
  0
LINE
  8
Layer0$C$L0
 10
2.528875
 20
-4.435972
 11
2.528875
 21
-2.151817
  0
LINE
  8
Layer0$C$L0
 10
2.408875
 20
-1.943972
 11
2.408875
 21
-1.856395
  0
LINE
  8
Layer0$C$L0
 10
2.528875
 20
-1.943972
 11
2.528875
 21
-1.856395
  0
LINE
  8
Layer0$C$L0
 10
2.400325
 20
-1.922396
 11
2.400325
 21
-1.856395
  0
CIRCLE
  8
Layer0$C$L0
 10
2.468875
 20
-2.047894
 40
5.554999E-02
  0
CIRCLE
  8
Layer0$C$L0
 10
2.468875
 20
-4.539895
 40
5.554999E-02
  0
LINE
  8
Layer0$C$L0
 10
2.538544
 20
-1.923014
 11
2.538544
 21
-1.856395
  0
LINE
  8
Layer0$C$L0
 10
1.797229
 20
-4.731395
 11
1.797229
 21
-4.168895
  0
LINE
  8
Layer0$C$L0
 10
2.537229
 20
-4.731395
 11
2.537229
 21
-4.665501
  0
LINE
  8
Layer0$C$L0
 10
2.537229
 20
-4.414289
 11
2.537229
 21
-2.173500
  0
CIRCLE
  8
Layer0$C$L0
 10
2.063229
 20
-2.168394
 40
0.101000
  0
CIRCLE
  8
Layer0$C$L0
 10
2.063229
 20
-4.418395
 40
0.101000
  0
LINE
  8
Layer0$C$L0
 10
0.770325
 20
-1.856395
 11
2.538544
 21
-1.856395
  0
LINE
  8
Layer0$C$L0
 10
0.770325
 20
-4.731395
 11
2.537229
 21
-4.731395
  0
ARC
  8
Layer0$C$L0
 10
2.468875
 20
-4.539895
 40
0.143000
 50
298.554699
 51
370.872688
  0
ARC
  8
Layer0$C$L0
 10
2.468875
 20
-4.539895
 40
0.143000
 50
118.644361
 51
169.334883
  0
LINE
  8
Layer0$C$L0
 10
1.797229
 20
-2.418895
 11
1.797229
 21
-1.856395
  0
ARC
  8
Layer0$C$L0
 10
1.653875
 20
-4.539895
 40
0.143000
 50
298.554699
 51
370.872688
  0
ARC
  8
Layer0$C$L0
 10
1.653875
 20
-2.047894
 40
0.143000
 50
298.554699
 51
420.843663
  0
ARC
  8
Layer0$C$L0
 10
1.653875
 20
-4.539895
 40
0.143000
 50
10.872696
 51
61.445304
  0
LINE
  8
Layer0$C$L0
 10
1.733229
 20
-2.418895
 11
1.733229
 21
-4.168895
  0
LINE
  8
Layer0$C$L0
 10
2.393229
 20
-2.418895
 11
2.393229
 21
-4.168895
  0
LINE
  8
Layer0$C$L0
 10
1.733229
 20
-4.168895
 11
2.393229
 21
-4.168895
  0
LINE
  8
Layer0$C$L0
 10
1.733229
 20
-2.418895
 11
2.393229
 21
-2.418895
  0
CIRCLE
  8
Layer0$C$L0
 10
0.838875
 20
-4.539895
 40
5.554999E-02
  0
LINE
  8
Layer0$C$L0
 10
0.918229
 20
-2.418895
 11
1.578228
 21
-2.418895
  0
LINE
  8
Layer0$C$L0
 10
0.918229
 20
-4.168895
 11
1.578228
 21
-4.168895
  0
LINE
  8
Layer0$C$L0
 10
1.578228
 20
-2.418895
 11
1.578228
 21
-4.168895
  0
LINE
  8
Layer0$C$L0
 10
0.918229
 20
-2.418895
 11
0.918229
 21
-4.168895
  0
LINE
  8
Layer0$C$L0
 10
0.907228
 20
-4.414289
 11
0.907228
 21
-2.173500
  0
LINE
  8
Layer0$C$L0
 10
0.770325
 20
-4.731395
 11
0.770325
 21
-4.665393
  0
LINE
  8
Layer0$C$L0
 10
0.778875
 20
-4.731395
 11
0.778875
 21
-4.643818
  0
LINE
  8
Layer0$C$L0
 10
0.898875
 20
-4.731395
 11
0.898875
 21
-4.643818
  0
ARC
  8
Layer0$C$L0
 10
0.838875
 20
-4.539895
 40
0.143000
 50
10.872696
 51
61.445304
  0
ARC
  8
Layer0$C$L0
 10
0.838875
 20
-4.539895
 40
0.120000
 50
299.999967
 51
420.000025
  0
ARC
  8
Layer0$C$L0
 10
0.838875
 20
-4.539895
 40
0.120000
 50
119.999990
 51
240.000034
  0
ARC
  8
Layer0$C$L0
 10
0.838875
 20
-4.539895
 40
0.143000
 50
169.334938
 51
241.355635
  0
ARC
  8
Layer0$C$L0
 10
0.838875
 20
-2.047894
 40
0.143000
 50
118.644361
 51
241.355663
  0
ARC
  8
Layer0$C$L0
 10
0.838875
 20
-2.047894
 40
0.120000
 50
119.999990
 51
240.000034
  0
LINE
  8
Layer0$C$L0
 10
0.778875
 20
-4.435972
 11
0.778875
 21
-2.151817
  0
ARC
  8
Layer0$C$L0
 10
0.838875
 20
-2.047894
 40
0.143000
 50
298.554699
 51
420.843663
  0
ARC
  8
Layer0$C$L0
 10
0.838875
 20
-2.047894
 40
0.120000
 50
299.999967
 51
420.000025
  0
LINE
  8
Layer0$C$L0
 10
0.898875
 20
-4.435972
 11
0.898875
 21
-2.151817
  0
LINE
  8
Layer0$C$L0
 10
0.778875
 20
-1.943972
 11
0.778875
 21
-1.856395
  0
LINE
  8
Layer0$C$L0
 10
0.898875
 20
-1.943972
 11
0.898875
 21
-1.856395
  0
LINE
  8
Layer0$C$L0
 10
0.770325
 20
-1.922396
 11
0.770325
 21
-1.856395
  0
CIRCLE
  8
Layer0$C$L0
 10
0.838875
 20
-2.047894
 40
5.554999E-02
  0
LINE
  8
Layer0$C$L0
 10
0.908543
 20
-1.923014
 11
0.908543
 21
-1.856395
  0
LINE
  8
Layer0$C$L0
 10
0.907228
 20
-4.731395
 11
0.907228
 21
-4.665501
  0
ARC
  8
Layer0$C$L0
 10
0.838875
 20
-4.539895
 40
0.143000
 50
298.554699
 51
370.872688
  0
ARC
  8
Layer0$C$L0
 10
0.838875
 20
-4.539895
 40
0.143000
 50
118.644361
 51
169.334883
  0
LINE
  8
Layer0$C$L0
 10
0.982229
 20
-2.418895
 11
0.982229
 21
-1.856395
  0
ARC
  8
Layer0$C$L0
 10
1.653875
 20
-4.539895
 40
0.143000
 50
118.644361
 51
169.334883
  0
ARC
  8
Layer0$C$L0
 10
1.653875
 20
-4.539895
 40
0.143000
 50
169.334938
 51
241.355635
  0
CIRCLE
  8
Layer0$C$L0
 10
1.248228
 20
-4.418395
 40
0.101000
  0
CIRCLE
  8
Layer0$C$L0
 10
1.248228
 20
-2.168394
 40
0.101000
  0
LINE
  8
Layer0$C$L0
 10
1.722228
 20
-4.731395
 11
1.722228
 21
-4.665501
  0
LINE
  8
Layer0$C$L0
 10
1.722228
 20
-4.414289
 11
1.722228
 21
-2.173500
  0
LINE
  8
Layer0$C$L0
 10
0.982229
 20
-4.731395
 11
0.982229
 21
-4.168895
  0
LINE
  8
Layer0$C$L0
 10
1.723544
 20
-1.923014
 11
1.723544
 21
-1.856395
  0
CIRCLE
  8
Layer0$C$L0
 10
1.653875
 20
-4.539895
 40
5.554999E-02
  0
CIRCLE
  8
Layer0$C$L0
 10
1.653875
 20
-2.047894
 40
5.554999E-02
  0
LINE
  8
Layer0$C$L0
 10
1.585325
 20
-1.922396
 11
1.585325
 21
-1.856395
  0
LINE
  8
Layer0$C$L0
 10
1.713875
 20
-1.943972
 11
1.713875
 21
-1.856395
  0
LINE
  8
Layer0$C$L0
 10
1.593875
 20
-1.943972
 11
1.593875
 21
-1.856395
  0
LINE
  8
Layer0$C$L0
 10
1.713875
 20
-4.435972
 11
1.713875
 21
-2.151817
  0
ARC
  8
Layer0$C$L0
 10
1.653875
 20
-2.047894
 40
0.120000
 50
299.999967
 51
420.000025
  0
LINE
  8
Layer0$C$L0
 10
1.593875
 20
-4.435972
 11
1.593875
 21
-2.151817
  0
LINE
  8
Layer0$C$L0
 10
1.585325
 20
-4.414397
 11
1.585325
 21
-2.173393
  0
ARC
  8
Layer0$C$L0
 10
1.653875
 20
-2.047894
 40
0.120000
 50
119.999990
 51
240.000034
  0
ARC
  8
Layer0$C$L0
 10
1.653875
 20
-2.047894
 40
0.143000
 50
118.644361
 51
241.355663
  0
ARC
  8
Layer0$C$L0
 10
1.653875
 20
-4.539895
 40
0.120000
 50
119.999990
 51
240.000034
  0
ARC
  8
Layer0$C$L0
 10
1.653875
 20
-4.539895
 40
0.120000
 50
299.999967
 51
420.000025
  0
LINE
  8
Layer0$C$L0
 10
1.713875
 20
-4.731395
 11
1.713875
 21
-4.643818
  0
LINE
  8
Layer0$C$L0
 10
1.593875
 20
-4.731395
 11
1.593875
 21
-4.643818
  0
LINE
  8
Layer0$C$L0
 10
1.585325
 20
-4.731395
 11
1.585325
 21
-4.665393
  0
LINE
  8
Layer0$C$L0
 10
1.248228
 20
-4.226756
 11
1.248228
 21
-4.654768
  0
LINE
  8
Layer0$C$L0
 10
1.248228
 20
-1.981157
 11
1.248228
 21
-2.350537
  0
LINE
  8
Layer0$C$L0
 10
1.051871
 20
-2.168394
 11
1.409525
 21
-2.168394
  0
LINE
  8
Layer0$C$L0
 10
1.063597
 20
-4.418395
 11
1.438841
 21
-4.418395
  0
LINE
  8
Layer0$C$L0
 10
0.918229
 20
-3.798949
 11
1.578228
 21
-3.798949
  0
LINE
  8
Layer0$C$L0
 10
0.918229
 20
-3.424950
 11
1.578228
 21
-3.424950
  0
CIRCLE
  8
Layer0$C$L0
 10
1.098229
 20
-3.985950
 40
0.106500
  0
CIRCLE
  8
Layer0$C$L0
 10
1.398229
 20
-3.985950
 40
0.106500
  0
CIRCLE
  8
Layer0$C$L0
 10
1.098229
 20
-3.611950
 40
0.106500
  0
CIRCLE
  8
Layer0$C$L0
 10
1.398229
 20
-3.611950
 40
0.106500
  0
LINE
  8
Layer0$C$L0
 10
1.189109
 20
-3.930425
 11
1.042704
 21
-4.076830
  0
LINE
  8
Layer0$C$L0
 10
1.153754
 20
-3.895069
 11
1.007348
 21
-4.041474
  0
LINE
  8
Layer0$C$L0
 10
1.489109
 20
-3.930425
 11
1.342704
 21
-4.076830
  0
LINE
  8
Layer0$C$L0
 10
1.453754
 20
-3.895069
 11
1.307348
 21
-4.041474
  0
LINE
  8
Layer0$C$L0
 10
1.489109
 20
-3.556425
 11
1.342704
 21
-3.702830
  0
LINE
  8
Layer0$C$L0
 10
1.189109
 20
-3.556425
 11
1.042704
 21
-3.702830
  0
LINE
  8
Layer0$C$L0
 10
1.153754
 20
-3.521070
 11
1.007348
 21
-3.667475
  0
LINE
  8
Layer0$C$L0
 10
1.453754
 20
-3.521070
 11
1.307348
 21
-3.667475
  0
LINE
  8
Layer0$C$L0
 10
1.248229
 20
-3.302305
 11
1.212873
 21
-3.337661
  0
LINE
  8
Layer0$C$L0
 10
1.212873
 20
-3.266950
 11
1.177518
 21
-3.302305
  0
LINE
  8
Layer0$C$L0
 10
1.248229
 20
-3.302305
 11
1.283584
 21
-3.337660
  0
LINE
  8
Layer0$C$L0
 10
1.283584
 20
-3.266950
 11
1.318939
 21
-3.302305
  0
LINE
  8
Layer0$C$L0
 10
1.177518
 20
-3.302305
 11
1.212873
 21
-3.337661
  0
LINE
  8
Layer0$C$L0
 10
1.318939
 20
-3.302305
 11
1.283584
 21
-3.337660
  0
LINE
  8
Layer0$C$L0
 10
1.283584
 20
-3.196239
 11
1.318939
 21
-3.231594
  0
LINE
  8
Layer0$C$L0
 10
1.212873
 20
-3.196239
 11
1.177518
 21
-3.231594
  0
LINE
  8
Layer0$C$L0
 10
1.177518
 20
-3.231594
 11
1.212873
 21
-3.266950
  0
LINE
  8
Layer0$C$L0
 10
1.318939
 20
-3.231594
 11
1.283584
 21
-3.266950
  0
LINE
  8
Layer0$C$L0
 10
1.283584
 20
-3.196239
 11
1.248229
 21
-3.231594
  0
LINE
  8
Layer0$C$L0
 10
1.248229
 20
-3.231594
 11
1.212873
 21
-3.196239
  0
LINE
  8
Layer0$C$L0
 10
2.063229
 20
-3.231594
 11
2.027874
 21
-3.196239
  0
LINE
  8
Layer0$C$L0
 10
2.098584
 20
-3.196239
 11
2.063229
 21
-3.231594
  0
LINE
  8
Layer0$C$L0
 10
2.133940
 20
-3.231594
 11
2.098584
 21
-3.266950
  0
LINE
  8
Layer0$C$L0
 10
1.992518
 20
-3.231594
 11
2.027874
 21
-3.266950
  0
LINE
  8
Layer0$C$L0
 10
2.027874
 20
-3.196239
 11
1.992518
 21
-3.231594
  0
LINE
  8
Layer0$C$L0
 10
2.098584
 20
-3.196239
 11
2.133940
 21
-3.231594
  0
LINE
  8
Layer0$C$L0
 10
2.133940
 20
-3.302305
 11
2.098584
 21
-3.337660
  0
LINE
  8
Layer0$C$L0
 10
1.992518
 20
-3.302305
 11
2.027874
 21
-3.337661
  0
LINE
  8
Layer0$C$L0
 10
2.098584
 20
-3.266950
 11
2.133940
 21
-3.302305
  0
LINE
  8
Layer0$C$L0
 10
2.063229
 20
-3.302305
 11
2.098584
 21
-3.337660
  0
LINE
  8
Layer0$C$L0
 10
2.027874
 20
-3.266950
 11
1.992518
 21
-3.302305
  0
LINE
  8
Layer0$C$L0
 10
2.063229
 20
-3.302305
 11
2.027874
 21
-3.337661
  0
LINE
  8
Layer0$C$L0
 10
2.268754
 20
-3.521070
 11
2.122349
 21
-3.667475
  0
LINE
  8
Layer0$C$L0
 10
1.968754
 20
-3.521070
 11
1.822348
 21
-3.667475
  0
LINE
  8
Layer0$C$L0
 10
2.004109
 20
-3.556425
 11
1.857704
 21
-3.702830
  0
LINE
  8
Layer0$C$L0
 10
2.304109
 20
-3.556425
 11
2.157704
 21
-3.702830
  0
LINE
  8
Layer0$C$L0
 10
2.268754
 20
-3.895069
 11
2.122349
 21
-4.041474
  0
LINE
  8
Layer0$C$L0
 10
2.304109
 20
-3.930425
 11
2.157704
 21
-4.076830
  0
LINE
  8
Layer0$C$L0
 10
1.968754
 20
-3.895069
 11
1.822348
 21
-4.041474
  0
LINE
  8
Layer0$C$L0
 10
2.004109
 20
-3.930425
 11
1.857704
 21
-4.076830
  0
CIRCLE
  8
Layer0$C$L0
 10
2.213229
 20
-3.611950
 40
0.106500
  0
CIRCLE
  8
Layer0$C$L0
 10
1.913229
 20
-3.611950
 40
0.106500
  0
CIRCLE
  8
Layer0$C$L0
 10
2.213229
 20
-3.985950
 40
0.106500
  0
CIRCLE
  8
Layer0$C$L0
 10
1.913229
 20
-3.985950
 40
0.106500
  0
LINE
  8
Layer0$C$L0
 10
1.733229
 20
-3.424950
 11
2.393229
 21
-3.424950
  0
LINE
  8
Layer0$C$L0
 10
1.733229
 20
-3.798949
 11
2.393229
 21
-3.798949
  0
LINE
  8
Layer0$C$L0
 10
1.793602
 20
-7.275640
 11
2.327020
 21
-7.275640
  0
LINE
  8
Layer0$C$L0
 10
1.796804
 20
-7.524640
 11
2.322412
 21
-7.524640
  0
LINE
  8
Layer0$C$L0
 10
2.377901
 20
-6.117640
 11
2.558968
 21
-6.117640
  0
LINE
  8
Layer0$C$L0
 10
0.769900
 20
-8.055640
 11
2.538119
 21
-8.055640
  0
LINE
  8
Layer0$C$L0
 10
2.347906
 20
-6.147085
 11
2.314898
 21
-7.930640
  0
LINE
  8
Layer0$C$L0
 10
2.588964
 20
-6.147119
 11
2.611782
 21
-7.458307
  0
LINE
  8
Layer0$C$L0
 10
2.408319
 20
-6.147509
 11
2.400452
 21
-7.930640
  0
LINE
  8
Layer0$C$L0
 10
2.538119
 20
-8.055640
 11
2.528600
 21
-6.147491
  0
ARC
  8
Layer0$C$L0
 10
2.558968
 20
-6.147641
 40
3.000000E-02
 50
0.996984
 51
90.000003
  0
ARC
  8
Layer0$C$L0
 10
2.377901
 20
-6.147641
 40
3.000000E-02
 50
90.000003
 51
178.939768
  0
ARC
  8
Layer0$C$L0
 10
2.438319
 20
-6.147641
 40
3.000000E-02
 50
90.000003
 51
179.747220
  0
ARC
  8
Layer0$C$L0
 10
2.498600
 20
-6.147641
 40
3.000000E-02
 50
0.285852
 51
90.000003
  0
LINE
  8
Layer0$C$L0
 10
2.611804
 20
-7.459641
 11
2.535146
 21
-7.459641
  0
LINE
  8
Layer0$C$L0
 10
1.796804
 20
-7.459641
 11
1.796804
 21
-7.930640
  0
LINE
  8
Layer0$C$L0
 10
1.796804
 20
-7.930640
 11
2.400452
 21
-7.930640
  0
LINE
  8
Layer0$C$L0
 10
1.773962
 20
-6.400640
 11
2.343214
 21
-6.400640
  0
CIRCLE
  8
Layer0$C$L0
 10
1.915602
 20
-6.700641
 40
0.125000
  0
CIRCLE
  8
Layer0$C$L0
 10
1.915602
 20
-7.045640
 40
0.125000
  0
ARC
  8
Layer0$C$L0
 10
2.215602
 20
-6.700641
 40
0.125000
 50
11.437184
 51
346.442330
  0
ARC
  8
Layer0$C$L0
 10
2.215602
 20
-7.045640
 40
0.125000
 50
21.235874
 51
336.643632
  0
LINE
  8
Layer0$C$L0
 10
1.815602
 20
-6.754010
 11
1.815602
 21
-6.625640
  0
LINE
  8
Layer0$C$L0
 10
2.015603
 20
-6.754010
 11
2.015603
 21
-6.625641
  0
LINE
  8
Layer0$C$L0
 10
2.115602
 20
-6.754010
 11
2.115602
 21
-6.625641
  0
LINE
  8
Layer0$C$L0
 10
2.315602
 20
-6.754010
 11
2.315602
 21
-6.625641
  0
LINE
  8
Layer0$C$L0
 10
1.915602
 20
-6.800641
 11
2.015603
 21
-6.754010
  0
LINE
  8
Layer0$C$L0
 10
2.215603
 20
-6.800641
 11
2.315602
 21
-6.754010
  0
LINE
  8
Layer0$C$L0
 10
2.215602
 20
-7.145640
 11
2.315602
 21
-7.099010
  0
LINE
  8
Layer0$C$L0
 10
1.915602
 20
-7.145640
 11
2.015603
 21
-7.099010
  0
LINE
  8
Layer0$C$L0
 10
1.815602
 20
-7.099010
 11
1.915602
 21
-7.145641
  0
LINE
  8
Layer0$C$L0
 10
2.115602
 20
-7.099010
 11
2.215602
 21
-7.145640
  0
LINE
  8
Layer0$C$L0
 10
2.115602
 20
-6.754010
 11
2.215602
 21
-6.800641
  0
LINE
  8
Layer0$C$L0
 10
1.815602
 20
-6.754010
 11
1.915602
 21
-6.800641
  0
LINE
  8
Layer0$C$L0
 10
1.815602
 20
-6.754010
 11
2.015603
 21
-6.754010
  0
LINE
  8
Layer0$C$L0
 10
2.115602
 20
-6.754010
 11
2.315602
 21
-6.754010
  0
LINE
  8
Layer0$C$L0
 10
2.115602
 20
-7.099010
 11
2.315602
 21
-7.099010
  0
LINE
  8
Layer0$C$L0
 10
1.815602
 20
-7.099010
 11
2.015603
 21
-7.099010
  0
LINE
  8
Layer0$C$L0
 10
1.815602
 20
-7.049010
 11
2.015603
 21
-7.049010
  0
LINE
  8
Layer0$C$L0
 10
2.115602
 20
-7.049009
 11
2.315602
 21
-7.049009
  0
LINE
  8
Layer0$C$L0
 10
2.115602
 20
-6.999009
 11
2.315602
 21
-6.999009
  0
LINE
  8
Layer0$C$L0
 10
1.815602
 20
-6.999010
 11
2.015603
 21
-6.999010
  0
LINE
  8
Layer0$C$L0
 10
1.836309
 20
-6.949009
 11
1.994896
 21
-6.949009
  0
LINE
  8
Layer0$C$L0
 10
2.136310
 20
-6.949009
 11
2.294895
 21
-6.949009
  0
LINE
  8
Layer0$C$L0
 10
2.115602
 20
-6.704010
 11
2.315602
 21
-6.704010
  0
LINE
  8
Layer0$C$L0
 10
2.115602
 20
-6.654009
 11
2.315602
 21
-6.654009
  0
LINE
  8
Layer0$C$L0
 10
2.136310
 20
-6.604009
 11
2.294895
 21
-6.604009
  0
LINE
  8
Layer0$C$L0
 10
1.815602
 20
-6.704010
 11
2.015603
 21
-6.704010
  0
LINE
  8
Layer0$C$L0
 10
1.815602
 20
-6.654010
 11
2.015603
 21
-6.654010
  0
LINE
  8
Layer0$C$L0
 10
1.836309
 20
-6.604010
 11
1.994896
 21
-6.604010
  0
LINE
  8
Layer0$C$L0
 10
1.815602
 20
-7.099010
 11
1.815602
 21
-6.970640
  0
LINE
  8
Layer0$C$L0
 10
2.015603
 20
-7.099010
 11
2.015603
 21
-6.970641
  0
LINE
  8
Layer0$C$L0
 10
2.115602
 20
-7.099010
 11
2.115602
 21
-6.970641
  0
LINE
  8
Layer0$C$L0
 10
2.315602
 20
-7.099010
 11
2.315602
 21
-6.970641
  0
CIRCLE
  8
Layer0$C$L0
 10
6.138560
 20
-6.838641
 40
0.219000
  0
LINE
  8
Layer0$C$L0
 10
6.425787
 20
-6.400640
 11
5.860949
 21
-6.400640
  0
LINE
  8
Layer0$C$L0
 10
7.434262
 20
-8.055640
 11
5.666043
 21
-8.055640
  0
LINE
  8
Layer0$C$L0
 10
6.407358
 20
-7.930640
 11
5.803710
 21
-7.930640
  0
LINE
  8
Layer0$C$L0
 10
6.407358
 20
-7.459641
 11
6.407358
 21
-7.930640
  0
LINE
  8
Layer0$C$L0
 10
5.592358
 20
-7.459641
 11
5.669017
 21
-7.459641
  0
ARC
  8
Layer0$C$L0
 10
5.705563
 20
-6.147641
 40
3.000000E-02
 50
89.999996
 51
179.714148
  0
ARC
  8
Layer0$C$L0
 10
5.765843
 20
-6.147641
 40
3.000000E-02
 50
0.252780
 51
89.999996
  0
ARC
  8
Layer0$C$L0
 10
5.826262
 20
-6.147641
 40
3.000000E-02
 50
1.060232
 51
89.999996
  0
ARC
  8
Layer0$C$L0
 10
5.645195
 20
-6.147641
 40
3.000000E-02
 50
89.999996
 51
179.003016
  0
LINE
  8
Layer0$C$L0
 10
5.666043
 20
-8.055640
 11
5.675563
 21
-6.147491
  0
LINE
  8
Layer0$C$L0
 10
5.795843
 20
-6.147509
 11
5.803710
 21
-7.930640
  0
LINE
  8
Layer0$C$L0
 10
5.615199
 20
-6.147119
 11
5.592381
 21
-7.458307
  0
LINE
  8
Layer0$C$L0
 10
5.856256
 20
-6.147085
 11
5.889264
 21
-7.930640
  0
LINE
  8
Layer0$C$L0
 10
5.826262
 20
-6.117640
 11
5.645195
 21
-6.117640
  0
LINE
  8
Layer0$C$L0
 10
6.407358
 20
-7.524640
 11
5.881750
 21
-7.524640
  0
LINE
  8
Layer0$C$L0
 10
6.410560
 20
-7.275640
 11
5.877142
 21
-7.275640
  0
LINE
  8
Layer0$C$L0
 10
5.958560
 20
-6.879705
 11
5.958560
 21
-6.713897
  0
LINE
  8
Layer0$C$L0
 10
6.318560
 20
-6.879705
 11
6.318560
 21
-6.713897
  0
LINE
  8
Layer0$C$L0
 10
5.958560
 20
-6.879705
 11
6.138560
 21
-6.963641
  0
LINE
  8
Layer0$C$L0
 10
6.138560
 20
-6.963641
 11
6.318560
 21
-6.879705
  0
LINE
  8
Layer0$C$L0
 10
5.958560
 20
-6.879705
 11
6.318560
 21
-6.879705
  0
LINE
  8
Layer0$C$L0
 10
5.958560
 20
-6.779706
 11
6.318560
 21
-6.779706
  0
LINE
  8
Layer0$C$L0
 10
5.987893
 20
-6.679706
 11
6.289227
 21
-6.679706
  0
LINE
  8
Layer0$C$L0
 10
6.802893
 20
-6.679706
 11
7.104228
 21
-6.679706
  0
LINE
  8
Layer0$C$L0
 10
6.773560
 20
-6.779706
 11
7.133560
 21
-6.779706
  0
LINE
  8
Layer0$C$L0
 10
6.773560
 20
-6.879705
 11
7.133560
 21
-6.879705
  0
LINE
  8
Layer0$C$L0
 10
6.953560
 20
-6.963641
 11
7.133560
 21
-6.879705
  0
LINE
  8
Layer0$C$L0
 10
6.773560
 20
-6.879705
 11
6.953560
 21
-6.963641
  0
LINE
  8
Layer0$C$L0
 10
7.133560
 20
-6.879705
 11
7.133560
 21
-6.713897
  0
LINE
  8
Layer0$C$L0
 10
6.773560
 20
-6.879705
 11
6.773560
 21
-6.713897
  0
LINE
  8
Layer0$C$L0
 10
1.500602
 20
-7.099010
 11
1.500602
 21
-6.970641
  0
LINE
  8
Layer0$C$L0
 10
1.300602
 20
-7.099010
 11
1.300602
 21
-6.970641
  0
LINE
  8
Layer0$C$L0
 10
1.200602
 20
-7.099010
 11
1.200602
 21
-6.970641
  0
LINE
  8
Layer0$C$L0
 10
1.000602
 20
-7.099010
 11
1.000602
 21
-6.970640
  0
LINE
  8
Layer0$C$L0
 10
1.021309
 20
-6.604010
 11
1.179896
 21
-6.604010
  0
LINE
  8
Layer0$C$L0
 10
1.000602
 20
-6.654010
 11
1.200602
 21
-6.654010
  0
LINE
  8
Layer0$C$L0
 10
1.000602
 20
-6.704010
 11
1.200602
 21
-6.704010
  0
LINE
  8
Layer0$C$L0
 10
1.321309
 20
-6.604009
 11
1.479895
 21
-6.604009
  0
LINE
  8
Layer0$C$L0
 10
1.300602
 20
-6.654009
 11
1.500602
 21
-6.654009
  0
LINE
  8
Layer0$C$L0
 10
1.300602
 20
-6.704010
 11
1.500602
 21
-6.704010
  0
LINE
  8
Layer0$C$L0
 10
1.321309
 20
-6.949009
 11
1.479895
 21
-6.949009
  0
LINE
  8
Layer0$C$L0
 10
1.021309
 20
-6.949009
 11
1.179896
 21
-6.949009
  0
LINE
  8
Layer0$C$L0
 10
1.000602
 20
-6.999010
 11
1.200602
 21
-6.999010
  0
LINE
  8
Layer0$C$L0
 10
1.300602
 20
-6.999009
 11
1.500602
 21
-6.999009
  0
LINE
  8
Layer0$C$L0
 10
1.300602
 20
-7.049009
 11
1.500602
 21
-7.049009
  0
LINE
  8
Layer0$C$L0
 10
1.000602
 20
-7.049010
 11
1.200602
 21
-7.049010
  0
LINE
  8
Layer0$C$L0
 10
1.000602
 20
-7.099010
 11
1.200602
 21
-7.099010
  0
LINE
  8
Layer0$C$L0
 10
1.300602
 20
-7.099010
 11
1.500602
 21
-7.099010
  0
LINE
  8
Layer0$C$L0
 10
1.300602
 20
-6.754010
 11
1.500602
 21
-6.754010
  0
LINE
  8
Layer0$C$L0
 10
1.000602
 20
-6.754010
 11
1.200602
 21
-6.754010
  0
LINE
  8
Layer0$C$L0
 10
1.000602
 20
-6.754010
 11
1.100602
 21
-6.800641
  0
LINE
  8
Layer0$C$L0
 10
1.300602
 20
-6.754010
 11
1.400602
 21
-6.800641
  0
LINE
  8
Layer0$C$L0
 10
1.300602
 20
-7.099010
 11
1.400602
 21
-7.145640
  0
LINE
  8
Layer0$C$L0
 10
1.000602
 20
-7.099010
 11
1.100602
 21
-7.145641
  0
LINE
  8
Layer0$C$L0
 10
1.100602
 20
-7.145640
 11
1.200602
 21
-7.099010
  0
LINE
  8
Layer0$C$L0
 10
1.400602
 20
-7.145640
 11
1.500602
 21
-7.099010
  0
LINE
  8
Layer0$C$L0
 10
1.400602
 20
-6.800641
 11
1.500602
 21
-6.754010
  0
LINE
  8
Layer0$C$L0
 10
1.100602
 20
-6.800641
 11
1.200602
 21
-6.754010
  0
LINE
  8
Layer0$C$L0
 10
1.500602
 20
-6.754010
 11
1.500602
 21
-6.625641
  0
LINE
  8
Layer0$C$L0
 10
1.300602
 20
-6.754010
 11
1.300602
 21
-6.625641
  0
LINE
  8
Layer0$C$L0
 10
1.200602
 20
-6.754010
 11
1.200602
 21
-6.625641
  0
LINE
  8
Layer0$C$L0
 10
1.000602
 20
-6.754010
 11
1.000602
 21
-6.625640
  0
ARC
  8
Layer0$C$L0
 10
1.400602
 20
-7.045640
 40
0.125000
 50
21.235874
 51
336.643632
  0
ARC
  8
Layer0$C$L0
 10
1.400602
 20
-6.700641
 40
0.125000
 50
11.437184
 51
346.442330
  0
CIRCLE
  8
Layer0$C$L0
 10
1.100602
 20
-7.045640
 40
0.125000
  0
CIRCLE
  8
Layer0$C$L0
 10
1.100602
 20
-6.700641
 40
0.125000
  0
ARC
  8
Layer0$C$L0
 10
7.456256
 20
-6.592641
 40
3.000000E-02
 50
270.000001
 51
359.999983
  0
LINE
  8
Layer0$C$L0
 10
7.456256
 20
-6.622641
 11
7.427939
 21
-6.622641
  0
LINE
  8
Layer0$C$L0
 10
7.486256
 20
-6.592641
 11
7.486256
 21
-6.167641
  0
LINE
  8
Layer0$C$L0
 10
6.692142
 20
-7.275640
 11
7.299934
 21
-7.275640
  0
LINE
  8
Layer0$C$L0
 10
7.222358
 20
-7.524640
 11
6.696750
 21
-7.524640
  0
LINE
  8
Layer0$C$L0
 10
6.641262
 20
-6.117640
 11
6.460195
 21
-6.117640
  0
LINE
  8
Layer0$C$L0
 10
6.671256
 20
-6.147085
 11
6.704264
 21
-7.930640
  0
LINE
  8
Layer0$C$L0
 10
6.430199
 20
-6.147119
 11
6.407381
 21
-7.458307
  0
LINE
  8
Layer0$C$L0
 10
6.610843
 20
-6.147509
 11
6.618710
 21
-7.930640
  0
LINE
  8
Layer0$C$L0
 10
6.481043
 20
-8.055640
 11
6.490563
 21
-6.147491
  0
ARC
  8
Layer0$C$L0
 10
6.460195
 20
-6.147641
 40
3.000000E-02
 50
89.999996
 51
179.003016
  0
ARC
  8
Layer0$C$L0
 10
6.641262
 20
-6.147641
 40
3.000000E-02
 50
1.060232
 51
89.999996
  0
ARC
  8
Layer0$C$L0
 10
6.580843
 20
-6.147641
 40
3.000000E-02
 50
0.252780
 51
89.999996
  0
ARC
  8
Layer0$C$L0
 10
6.520563
 20
-6.147641
 40
3.000000E-02
 50
89.999996
 51
179.714148
  0
LINE
  8
Layer0$C$L0
 10
7.222358
 20
-7.459641
 11
7.222358
 21
-7.930640
  0
LINE
  8
Layer0$C$L0
 10
7.222358
 20
-7.459641
 11
7.299016
 21
-7.459641
  0
LINE
  8
Layer0$C$L0
 10
7.296043
 20
-8.055640
 11
7.305462
 21
-6.167641
  0
LINE
  8
Layer0$C$L0
 10
7.425932
 20
-6.167641
 11
7.434262
 21
-8.055640
  0
LINE
  8
Layer0$C$L0
 10
7.222358
 20
-7.930640
 11
6.618710
 21
-7.930640
  0
LINE
  8
Layer0$C$L0
 10
7.245200
 20
-6.592641
 11
7.245200
 21
-6.167641
  0
LINE
  8
Layer0$C$L0
 10
7.275199
 20
-6.622641
 11
7.303516
 21
-6.622641
  0
ARC
  8
Layer0$C$L0
 10
7.275199
 20
-6.592641
 40
3.000000E-02
 50
180.000019
 51
270.000001
  0
LINE
  8
Layer0$C$L0
 10
7.283560
 20
-7.275640
 11
7.283560
 21
-6.622641
  0
LINE
  8
Layer0$C$L0
 10
7.245200
 20
-6.400640
 11
6.675949
 21
-6.400640
  0
CIRCLE
  8
Layer0$C$L0
 10
6.953560
 20
-6.838641
 40
0.219000
  0
LINE
  8
Layer0$C$L0
 10
0.958962
 20
-6.400640
 11
1.528213
 21
-6.400640
  0
LINE
  8
Layer0$C$L0
 10
9.467651
 20
-4.174549
 11
10.807652
 21
-4.174549
  0
LINE
  8
Layer0$C$L0
 10
9.467651
 20
-3.801548
 11
10.807652
 21
-3.801548
  0
LINE
  8
Layer0$C$L0
 10
7.102650
 20
-4.998549
 11
8.437651
 21
-4.998549
  0
LINE
  8
Layer0$C$L0
 10
7.102650
 20
-4.288549
 11
8.437651
 21
-4.288549
  0
LINE
  8
Layer0$C$L0
 10
10.807652
 20
-4.418549
 11
14.302652
 21
-4.418549
  0
LINE
  8
Layer0$C$L0
 10
5.262650
 20
-4.548549
 11
10.807652
 21
-4.548549
  0
LINE
  8
Layer0$C$L0
 10
7.102650
 20
-3.988549
 11
8.437651
 21
-3.988549
  0
LINE
  8
Layer0$C$L0
 10
7.102650
 20
-3.708549
 11
8.437651
 21
-3.708549
  0
LINE
  8
Layer0$C$L0
 10
5.262650
 20
-3.428549
 11
14.302652
 21
-3.428549
  0
LINE
  8
Layer0$C$L0
 10
10.807652
 20
-5.408549
 11
10.807652
 21
-2.588549
  0
LINE
  8
Layer0$C$L0
 10
9.467651
 20
-5.408549
 11
9.467651
 21
-3.448549
  0
LINE
  8
Layer0$C$L0
 10
8.437651
 20
-5.408549
 11
8.437651
 21
-3.168549
  0
LINE
  8
Layer0$C$L0
 10
5.262650
 20
-5.408549
 11
14.302652
 21
-5.408549
  0
LINE
  8
Layer0$C$L0
 10
7.102650
 20
-5.408549
 11
7.102650
 21
-3.448549
  0
LINE
  8
Layer0$C$L0
 10
5.262650
 20
-5.408549
 11
5.262650
 21
-2.588549
  0
LINE
  8
Layer0$C$L0
 10
6.067650
 20
-5.408549
 11
6.067650
 21
-2.588549
  0
LINE
  8
Layer0$C$L0
 10
5.262650
 20
-2.588549
 11
14.302652
 21
-2.588549
  0
LINE
  8
Layer0$C$L0
 10
6.067650
 20
-2.868549
 11
10.807652
 21
-2.868549
  0
LINE
  8
Layer0$C$L0
 10
6.067650
 20
-3.148549
 11
14.302652
 21
-3.148549
  0
LINE
  8
Layer0$C$L0
 10
9.467651
 20
-4.848549
 11
10.807652
 21
-4.848549
  0
LINE
  8
Layer0$C$L0
 10
11.857649
 20
-5.408549
 11
11.857649
 21
-3.448549
  0
LINE
  8
Layer0$C$L0
 10
13.047651
 20
-5.408549
 11
13.047651
 21
-2.588549
  0
LINE
  8
Layer0$C$L0
 10
9.467651
 20
-5.128549
 11
10.807652
 21
-5.128549
  0
LINE
  8
Layer0$C$L0
 10
14.302652
 20
-5.408549
 11
14.302652
 21
-2.588549
  0
LINE
  8
Layer0$C$L0
 10
0.920602
 20
-7.275640
 11
0.920602
 21
-6.622641
  0
ARC
  8
Layer0$C$L0
 10
0.928963
 20
-6.592641
 40
3.000000E-02
 50
270.000001
 51
359.999983
  0
LINE
  8
Layer0$C$L0
 10
0.928963
 20
-6.622641
 11
0.900646
 21
-6.622641
  0
LINE
  8
Layer0$C$L0
 10
0.958962
 20
-6.592641
 11
0.958962
 21
-6.167641
  0
LINE
  8
Layer0$C$L0
 10
0.981804
 20
-7.930640
 11
1.585452
 21
-7.930640
  0
LINE
  8
Layer0$C$L0
 10
0.778230
 20
-6.167641
 11
0.769900
 21
-8.055640
  0
LINE
  8
Layer0$C$L0
 10
0.908119
 20
-8.055640
 11
0.898700
 21
-6.167641
  0
LINE
  8
Layer0$C$L0
 10
0.981804
 20
-7.459641
 11
0.905146
 21
-7.459641
  0
LINE
  8
Layer0$C$L0
 10
0.981804
 20
-7.459641
 11
0.981804
 21
-7.930640
  0
LINE
  8
Layer0$C$L0
 10
1.796804
 20
-7.459641
 11
1.720146
 21
-7.459641
  0
ARC
  8
Layer0$C$L0
 10
1.683600
 20
-6.147641
 40
3.000000E-02
 50
0.285852
 51
90.000003
  0
ARC
  8
Layer0$C$L0
 10
1.623319
 20
-6.147641
 40
3.000000E-02
 50
90.000003
 51
179.747220
  0
ARC
  8
Layer0$C$L0
 10
1.562900
 20
-6.147641
 40
3.000000E-02
 50
90.000003
 51
178.939768
  0
ARC
  8
Layer0$C$L0
 10
1.743968
 20
-6.147641
 40
3.000000E-02
 50
0.996984
 51
90.000003
  0
LINE
  8
Layer0$C$L0
 10
1.723119
 20
-8.055640
 11
1.713600
 21
-6.147491
  0
LINE
  8
Layer0$C$L0
 10
1.593319
 20
-6.147509
 11
1.585452
 21
-7.930640
  0
LINE
  8
Layer0$C$L0
 10
1.773963
 20
-6.147119
 11
1.796781
 21
-7.458307
  0
LINE
  8
Layer0$C$L0
 10
1.532906
 20
-6.147085
 11
1.499898
 21
-7.930640
  0
LINE
  8
Layer0$C$L0
 10
1.562900
 20
-6.117640
 11
1.743968
 21
-6.117640
  0
LINE
  8
Layer0$C$L0
 10
0.981804
 20
-7.524640
 11
1.507412
 21
-7.524640
  0
LINE
  8
Layer0$C$L0
 10
0.904228
 20
-7.275640
 11
1.512020
 21
-7.275640
  0
LINE
  8
Layer0$C$L0
 10
0.717906
 20
-6.592641
 11
0.717906
 21
-6.167641
  0
LINE
  8
Layer0$C$L0
 10
0.747906
 20
-6.622641
 11
0.776223
 21
-6.622641
  0
ARC
  8
Layer0$C$L0
 10
0.747906
 20
-6.592641
 40
3.000000E-02
 50
180.000019
 51
270.000001
  0
ENDSEC
  0
EOF
